Heart of Gold
Alice Nine

BASIC

Level: 3
BPM: 195
Notes: 213

1
口口口口 |----|
口口口口 |----|
口口口口 |----|
口口口口 |----|
2
①口口口 |①---|
口口口口 |----|
口口②口 |②---|
口口口口 |----|
3
口口②口 |①---|
口口口口 |----|
①口口口 |②---|
口口口口 |----|
4
口口口口 |①---|
口①口口 |----|
口口口口 |②---|
口口口② |----|
5
口口口口 |①---|
口口口② |----|
口口口口 |②---|
口①口口 |----|
6
①口①口 |①---|
口口口口 |----|
口口②口 |②---|
口口口口 |----|
7
口口②口 |①---|
口口口口 |----|
①口口口 |②---|
口口口口 |----|
8
口口口口 |①---|
口①口① |----|
口口口口 |②---|
口口口② |----|
9
口口口口 |①---|
口口口② |----|
口口口口 |②---|
口①口口 |----|
10
①口①口 |①---|
口口口口 |----|
口口②口 |②---|
口口口口 |----|
11
口口②口 |①---|
口口口口 |----|
①口口口 |②---|
口口口口 |----|
12
口口口口 |①---|
口①口① |----|
口口口口 |②---|
口口口② |----|
13
口口口口 |①---|
口口口② |----|
口口口口 |②---|
口①口口 |----|
14
口口口口 |①---|
①口口口 |----|
口口口口 |----|
口口口口 |----|
15
口口口口 |①---|
口②②口 |----|
口口口口 |②---|
口①①口 |----|
16
口口口口 |①---|
①口口① |----|
口口口口 |----|
口口口口 |----|
17
口口口口 |①---|
②口口口 |----|
口口口口 |②---|
口口①口 |----|
18
口口口口 |①---|
口口口① |----|
口口口口 |----|
口口口口 |----|
19
②口口口 |①---|
口口口口 |----|
口口口口 |②---|
口①①口 |----|
20
口口口口 |①---|
口口口口 |----|
②口①口 |②---|
口口口口 |----|
21
口口①口 |①---|
口②口口 |----|
口口口口 |②---|
口口口口 |----|
22
口口口口 |①---|
口口④口 |②---|
口③口口 |③---|
②口口① |④---|
23
口口口口 |----|
口③口口 |①---|
口口②口 |②---|
口口口① |③---|
24
①②③口 |----|
口口口口 |①---|
口口口口 |②---|
口口口口 |③---|
25
口口口口 |①---|
④③②① |②---|
口口口口 |③---|
口口口口 |④---|
26
口口口口 |----|
口口③口 |①---|
口②口口 |②---|
①口口口 |③---|
27
口口口口 |----|
口③口口 |①---|
口口②口 |②---|
口口口① |③---|
28
口口口口 |----|
口口口口 |①---|
①②③口 |②---|
口口口口 |③---|
29
口③②① |①---|
口口口口 |②---|
口口口口 |③---|
口口口口 |----|
30
口口口口 |----|
口口口口 |----|
②口口② |①---|
口①①口 |②---|
31
口口口口 |①---|
①①①① |----|
口口口口 |----|
口口口口 |----|
32
口②②口 |①---|
③口口③ |----|
口口口口 |②---|
①口口① |③---|
33
口口口口 |①---|
口口口口 |----|
①①①① |----|
口口口口 |----|
34
②口口口 |①---|
①③口① |----|
口口口口 |②---|
口口口口 |③---|
35
口口口② |①---|
口口③口 |----|
口口①口 |②---|
口口口口 |③---|
36
口③口口 |①---|
④口口口 |②---|
口①口② |③---|
口口口口 |④---|
37
口口口口 |①---|
口①①口 |----|
口口口口 |----|
口②②口 |②---|
38
口口口口 |----|
②口口② |----|
口①①口 |①---|
口口口口 |②---|
39
①①①① |①---|
口口口口 |----|
口口口口 |----|
口口口口 |----|
40
口②②口 |①---|
③口口③ |----|
①口口① |②---|
口口口口 |③---|
41
口口口口 |①---|
口口口口 |----|
①①①① |----|
口口口口 |----|
42
②口口口 |①---|
①③口① |----|
口口口口 |②---|
口口口口 |③---|
43
口口口② |①---|
口口③口 |----|
口口①口 |②---|
口口口口 |③---|
44
口③口口 |①---|
④口口口 |②---|
口①口② |③---|
口口口口 |④---|
45
口口口口 |①---|
口①①口 |----|
口口口口 |----|
口②②口 |②---|
46
口口口口 |----|
口口口口 |----|
口口②① |①---|
口口口口 |②---|
47
口②口口 |①---|
口口口口 |----|
口①口口 |②---|
口口口口 |----|
48
口口①口 |①---|
口口口口 |----|
口口口口 |----|
口口口口 |----|
49
口口口口 |①---|
口①①口 |----|
口口②口 |②---|
口口口口 |----|
50
口口口口 |①---|
口口口口 |----|
口口口口 |----|
口②①口 |②---|
51
口口口口 |①---|
口口口① |----|
口口口口 |②---|
口口②口 |----|
52
口口口口 |①---|
①口口口 |----|
口口口口 |②---|
口②口口 |----|
53
口口口口 |①---|
口口口① |----|
口口口口 |②---|
口口②口 |----|
54
口①①口 |①---|
口②②口 |--②-|
口③③口 |----|
口口口口 |③---|
55
口口口口 |①---|
口③②① |--②-|
口口口口 |----|
口口口口 |③---|
56
口口口口 |----|
口口口口 |----|
口口口口 |----|
口口口口 |----|
57
口口口口 |①---|
口口口口 |----|
①②口口 |②---|
口口口口 |----|
58
口口口口 |①---|
口口口口 |----|
口口口口 |----|
口②①口 |②---|
59
口口口口 |①---|
口口口① |----|
口口口口 |②---|
口口②口 |----|
60
口口口口 |①---|
①口口口 |----|
口口口口 |②---|
口②口口 |----|
61
口口口口 |①---|
口口口① |----|
口口口口 |②---|
口口②口 |----|
62
口①①口 |①---|
口②②口 |--②-|
口③③口 |----|
口口口口 |③---|
63
②口口② |①---|
口口口口 |----|
①口口① |②---|
口口口口 |----|
64
口口口口 |----|
口口口口 |----|
口口口口 |----|
口口口口 |----|
65
口口口口 |----|
口口口口 |----|
口口口口 |----|
口口口口 |----|
66
口①①口 |①---|
口③②口 |----|
口口口口 |②---|
口口口口 |③---|
67
口口口口 |①---|
①口口① |----|
口口口口 |②---|
口②②口 |----|
68
口口口口 |----|
口口口口 |----|
口口口口 |----|
口口口口 |----|
69
①口口口 |①---|
口口口口 |----|
口口②口 |②---|
口口口口 |----|
70
口口②口 |①---|
口口口口 |----|
①口口口 |②---|
口口口口 |----|
71
口口口口 |①---|
口①口口 |----|
口口口口 |②---|
口口口② |----|
72
口口口口 |①---|
口口口② |----|
口口口口 |②---|
口①口口 |----|
73
①口①口 |①---|
口口口口 |----|
口口②口 |②---|
口口口口 |----|
74
口口②口 |①---|
口口口口 |----|
①口口口 |②---|
口口口口 |----|
75
口口口口 |①---|
口①口① |----|
口口口口 |②---|
口口口② |----|
76
口口口口 |①---|
口口口② |----|
口口口口 |②---|
口①口口 |----|
77
①口①口 |①---|
口口口口 |----|
口口②口 |②---|
口口口口 |----|
78
口口②口 |①---|
口口口口 |----|
①口口口 |②---|
口口口口 |----|


不確定度: 0

タグ:

+ タグ編集
  • タグ:

このサイトはreCAPTCHAによって保護されており、Googleの プライバシーポリシー利用規約 が適用されます。

最終更新:2013年04月07日 23:45