Sakura Sunrise
Ryu☆

BASIC

Level: 5
BPM: 181
Notes: 312

1
口口口口 |----|
口口口口 |----|
口口口口 |----|
口口口口 |----|
2
口④③口 |①---|
口②①口 |②---|
口口口口 |③---|
口口口口 |④---|
3
口口口口 |①---|
①口口① |②---|
②口口② |③---|
③口口③ |----|
4
口④③口 |①---|
口②①口 |②---|
口口口口 |③---|
口口口口 |④---|
5
口口口口 |①---|
③口口③ |②---|
②口口② |③---|
①口口① |----|
6
口④③口 |①---|
口②①口 |②---|
口口口口 |③---|
口口口口 |④---|
7
口口口口 |①---|
①口口① |②---|
②口口② |③---|
③口口③ |----|
8
口④③口 |①---|
口②①口 |②---|
口口口口 |③---|
口口口口 |④---|
9
口②口② |--①-|
口口①口 |----|
口②口② |--②-|
口口口口 |----|
10
口④③口 |①---|
口②①口 |②---|
口口口口 |③---|
口口口口 |④---|
11
口口口口 |①---|
③口口③ |②---|
②口口② |③---|
①口口① |----|
12
口④③口 |①---|
口②①口 |②---|
口口口口 |③---|
口口口口 |④---|
13
口口口口 |①---|
①口口① |②---|
②口口② |③---|
③口口③ |----|
14
口④③口 |①---|
口②①口 |②---|
口口口口 |③---|
口口口口 |④---|
15
口口口口 |①---|
③口口③ |②---|
②口口② |③---|
①口口① |----|
16
口④③口 |①---|
口②①口 |②---|
口口口口 |③---|
口口口口 |④---|
17
口②口② |--①-|
口口①口 |----|
口②口② |--②-|
口口口口 |----|
18
口口口口 |①---|
口口口口 |②---|
口④③口 |③---|
口②①口 |④---|
19
口口①① |①---|
口口②② |②---|
口口③③ |③---|
口口口口 |----|
20
口②①口 |①---|
口④③口 |②---|
口口口口 |③---|
口口口口 |④---|
21
口口口口 |①---|
口口③③ |②---|
口口②② |③---|
口口①① |----|
22
口口口口 |①---|
口口口口 |②---|
口④③口 |③---|
口②①口 |④---|
23
口口①① |①---|
口口②② |②---|
口口③③ |③---|
口口口口 |----|
24
①口口口 |①---|
②口口口 |②---|
③口口口 |③---|
④口口口 |④---|
25
口②口② |--①-|
口口①口 |----|
口②口② |--②-|
口口口口 |----|
26
④口口口 |①---|
③口口口 |②---|
②口口口 |③---|
①口口口 |④---|
27
口口口口 |①---|
口口②① |②---|
口口④③ |③---|
口口口口 |④---|
28
④口口口 |①---|
③口口口 |②---|
②口口口 |③---|
①口口口 |④---|
29
口口口口 |①---|
口口④③ |②---|
口口②① |③---|
口口口口 |④---|
30
口口口④ |①---|
口口口③ |②---|
口口口② |③---|
口口口① |④---|
31
口口口口 |①---|
①②口口 |②---|
③④口口 |③---|
口口口口 |④---|
32
口口口④ |①---|
口口口③ |②---|
口口口② |③---|
口口口① |④---|
33
口口口口 |①---|
③④口口 |②---|
①②口口 |③---|
口口口口 |④---|
34
口口③口 |①---|
口④口口 |②---|
口口⑤② |③--④|
口口口① |--⑤-|
35
口③口口 |①---|
口口④口 |②---|
②⑤口口 |③--④|
①口口口 |--⑤-|
36
口口③口 |①---|
口④口口 |②---|
口口⑤② |③--④|
口口口① |--⑤-|
37
口③口口 |①---|
口口④口 |②---|
②⑤口口 |③--④|
①口口口 |--⑤-|
38
口口②① |①---|
口③口口 |②---|
口口④口 |③--④|
口⑤口口 |--⑤-|
39
①②口口 |①---|
口口③口 |②---|
口④口口 |③--④|
口口⑤口 |--⑤-|
40
口口②① |--①-|
口③口口 |--②-|
口口④口 |③--④|
口⑤口口 |--⑤-|
41
①②口口 |--①-|
口口③口 |--②-|
口④口口 |③--④|
口口⑤口 |--⑤-|
42
口口口口 |①---|
口口口口 |----|
口口口口 |----|
①口口口 |----|
43
口口口口 |①---|
③③口口 |②---|
②②口口 |③---|
①①口口 |----|
44
口口口口 |----|
口口口口 |----|
口口口口 |----|
口口口口 |----|
45
口口①① |①---|
口口②② |②---|
口口③③ |③---|
口口口口 |----|
46
口口口口 |①---|
口口口口 |②---|
口④③口 |③---|
口②①口 |④---|
47
③口口③ |①---|
②口口② |②---|
①口口① |③---|
口口口口 |----|
48
口口口口 |①---|
口④③口 |②---|
口②①口 |③---|
口口口口 |④---|
49
口口口口 |--①-|
口②口② |----|
口口①口 |--②-|
口②口② |----|
50
口②口② |--①-|
口口①口 |----|
口②口② |--②-|
口口口口 |----|
51
口口口口 |----|
口口口口 |----|
口口口口 |----|
口口口口 |----|
52
口口口口 |①---|
③口口③ |②---|
②口口② |③---|
①口口① |----|
53
口④③口 |①---|
口②①口 |②---|
口口口口 |③---|
口口口口 |④---|
54
口口口口 |①---|
③口口③ |②---|
②口口② |③---|
①口口① |----|
55
口④③口 |①---|
口②①口 |②---|
口口口口 |③---|
口口口口 |④---|
56
口口口口 |①---|
①口口① |②---|
②口口② |③---|
③口口③ |----|
57
口④③口 |①---|
口②①口 |②---|
口口口口 |③---|
口口口口 |④---|
58
口口口口 |①---|
③口口③ |②---|
②口口② |③---|
①口口① |----|
59
口④③口 |①---|
口②①口 |②---|
口口口口 |③---|
口口口口 |④---|
60
口②口② |--①-|
口口①口 |----|
口②口② |--②-|
口口口口 |----|
61
口口口口 |①---|
口口口口 |②---|
④口口③ |③---|
②口口① |④---|
62
口①①口 |①---|
口②②口 |②---|
口③③口 |③---|
口口口口 |----|
63
口口口口 |①---|
口口口口 |②---|
④口口③ |③---|
②口口① |④---|
64
口③③口 |①---|
口②②口 |②---|
口①①口 |③---|
口口口口 |----|
65
口口口口 |①---|
口口口口 |②---|
④口口③ |③---|
②口口① |④---|
66
口①①口 |①---|
口②②口 |②---|
口③③口 |③---|
口口口口 |----|
67
②口口① |①---|
④口口③ |②---|
口口口口 |③---|
口口口口 |④---|
68
口口口口 |--①-|
口口②口 |----|
口口①口 |--②-|
口口①口 |----|
69
口①口① |①---|
口口口口 |----|
口①口① |----|
口口口口 |----|


不確定度: 0

最終更新:2013年06月30日 20:05