Sakura Sunrise
Ryu☆

ADVANCED

Level: 8
BPM: 181
Notes: 553

1
口口口口 |----|
口口口口 |----|
口口口口 |----|
口口口口 |----|
2
口口⑦口 |①-②-|
口⑥①口 |③---|
口②⑤口 |④-⑤-|
口④③口 |⑥-⑦-|
3
⑤⑥⑦口 |①-②-|
③口口④ |③-④-|
①口口② |⑤---|
口口口口 |⑥-⑦-|
4
口⑦口口 |①-②-|
口①⑥口 |③---|
口⑤②口 |④-⑤-|
口③④口 |⑥-⑦-|
5
口⑤④口 |①---|
①口口① |②---|
③口口③ |③---|
②口口② |④-⑤-|
6
口口⑦口 |①-②-|
口⑥①口 |③---|
口②⑤口 |④-⑤-|
口④③口 |⑥-⑦-|
7
⑤⑥⑦口 |①-②-|
③口口④ |③-④-|
①口口② |⑤---|
口口口口 |⑥-⑦-|
8
口⑦口口 |①-②-|
口①⑥口 |③---|
口⑤②口 |④-⑤-|
口③④口 |⑥-⑦-|
9
③口口③ |--①-|
②口口② |②-③-|
①④④① |--④-|
口⑤⑤口 |⑤---|
10
口②①口 |①-②-|
⑥口③⑦ |③---|
口口口口 |④-⑤-|
④口口⑤ |⑥-⑦-|
11
口⑤口⑤ |①-②-|
口口④口 |③-④-|
⑦⑤③⑤ |⑤---|
⑥①②口 |⑥-⑦-|
12
②口①口 |①-②-|
口⑤③④ |③---|
口口口口 |④-⑤-|
口⑦口⑥ |⑥-⑦-|
13
口③口③ |①---|
口口②口 |②---|
⑤③①③ |③---|
④口①口 |④-⑤-|
14
②口①口 |①-②-|
④口③⑤ |③---|
口口口口 |④-⑤-|
⑥口口⑦ |⑥-⑦-|
15
口⑤口⑤ |①-②-|
口口④口 |③-④-|
⑦⑤③⑤ |⑤---|
⑥①②口 |⑥-⑦-|
16
②口①口 |①-②-|
口口③口 |③---|
口口口口
口口口口

口口⑦口
口⑥口口
口口⑤口 |④-⑤-|
口④口口 |⑥-⑦-|
17
⑤口口⑤ |--①-|
③④④③ |②-③-|
②口口② |--④-|
①口口① |⑤---|
18
口口口口 |①-②-|
口⑦口⑥ |③---|
②⑤①④ |④-⑤-|
口口③口 |⑥-⑦-|
19
④③②口 |①-②-|
⑤口①口 |③-④-|
⑦口口口 |⑤---|
⑥口口口 |⑥-⑦-|
20
⑦⑥口口 |①-②-|
口口⑤④ |③---|
口①口② |④-⑤-|
口③口口 |⑥-⑦-|
21
口口口口 |①---|
③口口③ |②---|
②口⑤② |③---|
①口④① |④-⑤-|
22
口①②口 |①-②-|
⑥③口⑦ |③---|
口口口口 |④-⑤-|
④口口⑤ |⑥-⑦-|
23
口⑤口⑤ |①-②-|
口口④口 |③-④-|
⑦⑤③⑤ |⑤---|
⑥①②口 |⑥-⑦-|
24
②口①口 |①-②-|
⑦⑥③口 |③---|
口口⑤④ |④-⑤-|
口口口口 |⑥-⑦-|
25
口⑤口① |--①-|
口④③② |②-③-|
②③④口 |--④-|
①口⑤口 |⑤---|
26
②口口⑦ |①-②-|
④口口⑤ |③-④-|
⑥口口③ |⑤-⑥-|
⑧口口① |⑦-⑧-|
27
口②①口 |①-②-|
口⑥⑤口 |③-④-|
⑦口口口 |⑤-⑥-|
口③④口 |⑦---|
28
②口⑦⑦ |①-②-|
④口口⑤ |③-④-|
⑥口口③ |⑤-⑥-|
口口口① |⑦---|
29
③④口口 |①-②-|
⑤⑦⑦⑤ |③-④-|
口⑥⑥口 |⑤-⑥-|
口口②① |⑦---|
30
②口口⑦ |①-②-|
④口⑦⑤ |③-④-|
⑥口口③ |⑤-⑥-|
口口口① |⑦---|
31
口口⑥口 |①-②-|
口口口⑤ |③-④-|
口③①口 |⑤-⑥-|
口④②口 |----|
32
②口口⑦ |①-②-|
④口⑦⑤ |③-④-|
⑥口口③ |⑤-⑥-|
口口口① |⑦---|
33
⑦②①⑦ |①-②-|
口口口口 |③-④-|
口⑤⑤口 |⑤-⑥-|
⑥③④⑥ |⑦---|
34
口口口口 |①-②-|
②⑦⑨① |③-④-|
④⑥⑧③ |⑤-⑥⑦|
口口口⑤ |-⑧⑨-|
35
口口口口 |①-②-|
①⑨⑦② |③-④-|
③⑧⑥④ |⑤-⑥⑦|
口⑤口口 |-⑧⑨-|
36
口口口口 |①-②-|
②⑦⑨① |③-④-|
④⑥⑧③ |⑤-⑥⑦|
口口⑤口 |-⑧⑨-|
37
口口口口 |①-②-|
①⑨⑦② |③-④-|
③⑧⑥④ |⑤-⑥⑦|
口⑤口口 |-⑧⑨-|
38
②口口① |①-②-|
口⑦⑨口 |③-④-|
④⑥⑧③ |⑤-⑥⑦|
口口⑤口 |-⑧⑨-|
39
①口口② |①-②-|
口⑨⑦口 |③-④-|
③⑧⑥④ |⑤-⑥⑦|
口⑤口口 |-⑧⑨-|
40
②口口① |--①-|
口⑦⑦口 |②-③-|
口⑥⑤口 |④-⑤⑥|
④口口③ |--⑦-|
41
①口口② |--①-|
口⑦⑦口 |②-③-|
口⑤⑥口 |④-⑤⑥|
③口口④ |--⑦-|
42
口①①口 |①---|
口口口口 |----|
口口口口 |----|
口口口口 |----|
43
口③②③ |①---|
口②①② |②---|
口③②③ |③---|
口口口口 |----|
44
口口口口 |----|
口口口口 |----|
口口口口 |----|
口口口口 |----|
45
口口口口 |①---|
③②③口 |②---|
②①②⑤ |③---|
③②③④ |④-⑤-|
46
口①口② |①-②-|
④③口⑤ |③---|
口口口口 |④-⑤-|
⑥口口⑦ |⑥-⑦-|
47
⑤口⑤口 |①-②-|
⑥④口⑦ |③-④-|
⑤③⑤口 |⑤---|
口②①口 |⑥-⑦-|
48
⑪①口⑩ |①-②-|
⑨口②⑧ |③---|
⑦③口⑥ |④⑤⑥⑦|
⑤口口④ |⑧⑨⑩⑪|
49
口口口口 |--①-|
④③③④ |②-③-|
⑤②②⑤ |--④-|
口①①口 |⑤---|
50
口①②③ |--①-|
⑤⑤④④ |②-③-|
④④⑤⑤ |--④-|
③②①口 |⑤---|
51
口口口口 |----|
口口口口 |----|
口口口口 |----|
口口口口 |----|
52
口口口① |①---|
③②③口 |②---|
②③②口 |③---|
③②③口 |----|
53
口②口① |①-②-|
口口口③ |③---|
④口口⑤ |④-⑤-|
⑦口口⑥ |⑥-⑦-|
54
口⑤口⑤ |①-②-|
口口④口 |③-④-|
⑦⑤③⑤ |⑤---|
⑥①②口 |⑥-⑦-|
55
①口②④ |①-②-|
③口口⑤ |③---|
⑦口⑥口 |④-⑤-|
口口口口 |⑥-⑦-|
56
①口口口 |①---|
口③②③ |②---|
⑤②口② |③---|
④③②③ |④-⑤-|
57
口②口① |①-②-|
⑤口③④ |③---|
口口口口 |④-⑤-|
⑦口口⑥ |⑥-⑦-|
58
口⑤口⑤ |①-②-|
口口④口 |③-④-|
⑦⑤③⑤ |⑤---|
⑥①②口 |⑥-⑦-|
59
①口②口 |①-②-|
⑤③口④ |③---|
⑦口口⑥ |④-⑤-|
口口口口 |⑥-⑦-|
60
④口②③ |--①-|
⑤口①口 |②-③-|
口①口⑤ |--④-|
③②口④ |⑤---|
61
⑥口口⑦ |①-②-|
口口口口 |③---|
④②①⑤ |④-⑤-|
口口③口 |⑥-⑦-|
62
口②①口 |①-②-|
⑤③⑤口 |③-④-|
口④口⑦ |⑤---|
⑤口⑤⑥ |⑥-⑦-|
63
口①口② |①-②-|
口③口口 |③---|
④口口⑦ |④-⑤-|
口⑤⑥口 |⑥-⑦-|
64
③②③口 |①---|
②③②⑤ |②---|
③②③④ |③---|
口口口① |④-⑤-|
65
口②口① |①-②-|
⑥口③⑦ |③---|
口口口口 |④-⑤-|
④口口⑤ |⑥-⑦-|
66
口⑤口⑤ |①-②-|
⑦口④口 |③-④-|
⑥⑤③⑤ |⑤---|
口①②口 |⑥-⑦-|
67
①⑦②口 |①-②-|
口③⑥口 |③---|
口⑤口口 |④-⑤-|
口口④口 |⑥-⑦-|
68
②口⑤口 |--①-|
①③口④ |②-③-|
④口③① |--④-|
口⑤口② |⑤---|
69
口①口① |①---|
口口①口 |----|
口①口① |----|
口口口口 |----|


不確定度: 0

最終更新:2013年06月30日 20:05