華爛漫 -Flowers-
TЁЯRA

BASIC

Level: 2
BPM: 160
Notes: 181

1
口口口口 |----|
口口口口 |----|
口口口口 |----|
口口口口 |----|
2
口口口口 |----|
口口口口 |----|
口口口口 |----|
口口口口 |----|
3
口口口口 |①---|
口①②口 |----|
口口口口 |②---|
口口口口 |----|
4
口口口口 |①---|
口口口口 |----|
口②①口 |②---|
口口口口 |----|
5
口口口口 |①---|
①口口口 |----|
②口口口 |②---|
口口口口 |----|
6
口口口口 |①---|
口口口① |----|
口口口② |②---|
口口口口 |----|
7
口口口口 |①---|
①②③④ |②---|
口口口口 |③---|
口口口口 |④---|
8
口口口口 |①---|
口口口口 |----|
口①①口 |②---|
口②②口 |----|
9
口口口口 |①---|
①②③④ |②---|
口口口口 |③---|
口口口口 |④---|
10
口口口口 |①---|
口口口口 |----|
口①①口 |②---|
口②②口 |----|
11
口口口口 |①---|
②口口口 |----|
①口口口 |②---|
口口口口 |----|
12
①口口口 |①---|
口②②口 |----|
口口口口 |②---|
口口口口 |----|
13
口口口口 |①---|
口口口② |----|
口口口① |②---|
口口口口 |----|
14
口口口① |①---|
口②②口 |----|
口口口口 |②---|
口口口口 |----|
15
①②口口 |①---|
口口口口 |----|
口口口口 |②---|
口口口口 |----|
16
口口①口 |①---|
口②②口 |----|
口口口口 |②---|
口口口口 |----|
17
口口口口 |①---|
口口口口 |----|
口口②① |②---|
口口口口 |----|
18
口口口口 |①---|
口②②口 |----|
口①口口 |②---|
口口口口 |----|
19
口口口口 |①---|
①③口口 |②---|
②④口口 |③---|
口口口口 |④---|
20
口②②口 |①---|
口口①口 |----|
口口口口 |②---|
口口口口 |----|
21
口口口口 |①---|
①③口口 |②---|
②④口口 |③---|
口口口口 |④---|
22
口口口口 |①---|
口口①口 |----|
口口口口 |②---|
口②②口 |----|
23
口口口口 |①---|
①口②口 |----|
口口口口 |②---|
口口口口 |----|
24
口口口口 |①---|
口口口口 |----|
口①口② |②---|
口口口口 |----|
25
口口口口 |①---|
口口口口 |----|
口口口口 |②---|
①口②口 |----|
26
口口口口 |①---|
②①①② |----|
口口口口 |②---|
口口口口 |----|
27
口口口口 |①---|
口口②口 |----|
口口口口 |②---|
口①①口 |----|
28
口口口口 |①---|
口①口口 |----|
口②口口 |②---|
口口口口 |----|
29
口口口口 |①---|
①口口① |----|
口口口口 |②---|
口②②口 |----|
30
口口口口 |①---|
口口①口 |----|
口口②口 |②---|
口口口口 |----|
31
口口口口 |①---|
①口口① |----|
口口口口 |②---|
口②②口 |----|
32
口口口口 |①---|
口①口口 |----|
口②口口 |②---|
口口口口 |----|
33
口口口口 |①---|
①口口① |----|
口口口口 |②---|
口②②口 |----|
34
口口②口 |①---|
口口①口 |----|
口口口口 |②---|
口口口口 |----|
35
口口口口 |①---|
口①口口 |----|
口口②口 |②---|
口口口口 |----|
36
口口口口 |①---|
口口口口 |----|
口口口口 |----|
口口口① |----|
37
口口口口 |①---|
口口①口 |----|
口②口口 |②---|
口口口口 |----|
38
口口口口 |①---|
口口口口 |----|
口口口口 |----|
①口口口 |----|
39
①②口口 |①---|
口口口口 |----|
口口口口 |②---|
口口口口 |----|
40
口口口口 |①---|
口口①② |----|
口口口口 |②---|
口口口口 |----|
41
口口口口 |①---|
口口口口 |----|
口口②① |②---|
口口口口 |----|
42
口口口口 |①---|
口口口口 |----|
口口口口 |②---|
②①口口 |----|
43
口口口口 |----|
口口口口 |----|
口口口口 |----|
口口口口 |----|
44
口口口口 |①---|
口①口口 |----|
口口②口 |②---|
口口口口 |----|
45
口口口口 |①---|
口口口口 |----|
②口口口 |②---|
口①口口 |----|
46
口口②口 |①---|
口①口口 |----|
口口口口 |②---|
口口口口 |----|
47
口口口口 |①---|
口口口① |----|
口口②口 |②---|
口口口口 |----|
48
口②口口 |①---|
①口口口 |----|
口口口口 |②---|
口口口口 |----|
49
口口口口 |①---|
口口①口 |----|
口②口口 |②---|
口口口口 |----|
50
口口口口 |①---|
口口口口 |----|
口口口② |②---|
口口①口 |----|
51
口口口口 |①---|
口口①口 |----|
口②口口 |②---|
口口口口 |----|
52
口①口口 |①---|
口口②口 |----|
口口口口 |②---|
口口口口 |----|
53
口口口口 |①---|
①①口口 |----|
口口②② |②---|
口口口口 |----|
54
口口口口 |①---|
①口口① |----|
口口口口 |②---|
口②②口 |----|
55
口口口口 |①---|
①①口口 |----|
口口②② |②---|
口口口口 |----|
56
口口口口 |①---|
①口口① |----|
口②②口 |②---|
口口口口 |----|
57
口口口口 |①---|
①①口口 |----|
口口②② |②---|
口口口口 |----|
58
口口口口 |①---|
①口口① |----|
口②②口 |②---|
口口口口 |----|
59
口口②② |①---|
①①口口 |----|
口口口口 |②---|
口口口口 |----|
60
①口②口 |----|
口口口口 |①---|
口口口口 |----|
口口口口 |②---|
61
口口口口 |----|
口②口① |①---|
口口口口 |----|
口口口口 |②---|
62
口口口口 |----|
口口口口 |①---|
②口①口 |----|
口口口口 |②---|
63
口口口口 |①---|
口①③口 |②---|
口②④口 |③---|
口口口口 |④---|
64
口口口口 |----|
①口②口 |①---|
口口口口 |----|
口口口口 |②---|
65
口口口口 |----|
口口口口 |①---|
口②口① |----|
口口口口 |②---|
66
口口口口 |----|
口口口口 |①---|
口口口口 |----|
①口②口 |②---|
67
口①①口 |①---|
口②②口 |②---|
口③③口 |③---|
口口口口 |----|
68
口口口口 |①---|
①②③④ |②---|
口口口口 |③---|
口口口口 |④---|
69
口口口口 |①---|
口③③口 |②---|
口口②① |③---|
口口口口 |----|


不確定度: 0

最終更新:2013年06月30日 19:59