華爛漫 -Flowers-
TЁЯRA

ADVANCED

Level: 8
BPM: 160
Notes: 457

1
口口口口 |----|
口口口口 |----|
口口口口 |----|
口口口口 |----|
2
口口②口 |----|
口口口① |----|
口口口口 |----|
口口口口 |①-②-|
3
口①口口 |①---|
③口口口 |②---|
口②口口 |③---|
④口口口 |④---|
4
口口②② |①---|
口口③③ |②---|
口口①① |③---|
口口口口 |----|
5
口口①口 |①---|
口口口③ |②---|
口口②口 |③---|
口口口④ |④---|
6
口口口④ |①---|
③③口口 |②---|
②②口口 |③---|
①①口口 |④---|
7
口①口口 |①-②-|
口口口口 |③-④-|
口③口口
口口②④

口口口口
⑤口口口
口口口口 |⑤-⑥-|
⑦⑥⑧口 |⑦-⑧-|
8
口口②② |①---|
口口③③ |②---|
口口①① |③---|
口口口口 |----|
9
口口①口 |①-②-|
口口口口 |③-④-|
口口③口
④②口口

口口口口
口口口⑤
口口口口 |⑤-⑥-|
口⑧⑥⑦ |⑦-⑧-|
10
口③③口 |①---|
②②口口 |②---|
①①口口 |③---|
口口口口 |----|
11
口口④口 |①---|
⑤③⑥口 |②-③-|
口口②口 |④---|
①口口口 |⑤-⑥-|
12
口③④口 |--①-|
口口口口 |②-③-|
口①②口 |④---|
口口口口 |----|
13
口④口口 |①---|
口⑥③⑤ |②-③-|
口②口口 |④---|
口口口① |⑤-⑥-|
14
口⑤③⑤ |--①-|
口口口口 |②-③-|
口②①口 |④---|
④口④口 |⑤---|
15
口口口口 |①---|
口②口① |②-③-|
口⑥③⑤ |④---|
口④口口 |⑤-⑥-|
16
口口口口 |--①-|
口②①口 |②-③-|
口口口口 |④---|
口④③口 |----|
17
①口口口 |①---|
口⑥②口 |②-③-|
⑤③口口 |④---|
口口④口 |⑤-⑥-|
18
口④②④ |--①-|
口口口① |②-③-|
口④③④ |④---|
口口口口 |----|
19
口口口口 |①---|
④②②口 |②---|
①口口③ |③---|
①口口③ |④---|
20
口口③口 |①---|
口⑤②⑤ |②-③-|
④①④口 |④---|
口口口口 |⑤---|
21
①口口口 |①---|
①口口口 |②---|
口②②口
口口口口

④口口③
口口口③
口口口口 |③---|
口口口口 |④---|
22
口口口口 |①---|
口①口② |②-③-|
口口③口 |④---|
口④④口 |----|
23
③③口口 |①---|
口口②② |②---|
①①口口 |③---|
④口口口 |④---|
24
口口口② |①---|
④口③口 |②-③-|
口①⑤口 |--④-|
口口口口 |--⑤-|
25
③口口③ |①---|
口口口口 |--②-|
口口口① |----|
②口口② |③---|
26
②口口口 |①---|
口口口口 |----|
①③口① |②---|
口口口口 |③---|
27
口口口② |①---|
⑥口口口 |②-③-|
①⑤③④ |④---|
口①④口 |⑤-⑥-|
28
口③①④ |①--②|
口⑦②口 |③-④-|
⑤口口口 |⑤---|
⑥口口口 |⑥-⑦-|
29
口①④⑥ |①---|
①口③④ |②-③-|
口口⑤口 |④---|
口口口② |⑤-⑥-|
30
⑥①③口 |①--②|
④②口口 |③-④-|
口⑦口⑤ |⑤---|
口口口口 |⑥-⑦-|
31
口口口② |①---|
⑥口口口 |②-③-|
①⑤③④ |④---|
口①④口 |⑤-⑥-|
32
口③①④ |①--②|
口⑦②口 |③-④-|
⑤口口口 |⑤---|
⑥口口口 |⑥-⑦-|
33
口①口口 |①---|
①口③口 |②-③-|
口口口口
口口口②

口口④口
⑥口口④
口口口口 |④---|
口口⑤口 |⑤-⑥-|
34
口①④口 |①--②|
口②口③ |③-④-|
口口口口
口口口口

口⑥口⑥
口口⑥口
口⑥⑤⑥ |⑤---|
口口口口 |⑥---|
35
口口口口 |①---|
①口口口 |----|
口口口② |②---|
口口口口 |----|
36
①①口口 |①---|
②口①口 |②---|
③口口口 |③---|
口口口口 |----|
37
口口②口 |①---|
③口口口 |----|
口口①口 |②---|
口口口口 |③---|
38
④口口口 |①---|
口⑤口③ |②---|
口口口② |③---|
口口①① |④-⑤-|
39
⑦口⑧③ |①-②-|
口口④口 |③-④-|
口①⑤口 |⑤-⑥-|
⑥口②口 |⑦-⑧-|
40
口口口口 |①-②-|
口②口① |③-④-|
③口④口
口口②口

⑥口口口
口⑦口口
口口口口 |⑤---|
口⑤口口 |⑥-⑦-|
41
⑦口⑧③ |①-②-|
口口④口 |③-④-|
口①⑤口 |⑤-⑥-|
⑥口②口 |⑦-⑧-|
42
⑥口口⑥ |①-②-|
①②口① |③-④-|
③口④③ |⑤---|
⑤口口⑤ |⑥---|
43
口口口口 |①---|
口口口口 |----|
口③口口 |----|
②①①口 |②-③-|
44
口口口④ |①---|
口①口③ |②-③-|
口⑤②口 |④---|
口口⑥口 |⑤-⑥-|
45
⑥③口口 |①--②|
②⑦口④ |③-④-|
⑤口口① |⑤---|
口口口口 |⑥-⑦-|
46
口口口口 |①---|
口口②口 |②-③-|
⑥①口③ |④---|
口⑤口④ |⑤-⑥-|
47
口口②口 |①--②|
④口口③ |③-④-|
口⑦①⑤ |⑤---|
⑥口口口 |⑥-⑦-|
48
口口口④ |①---|
口①口③ |②-③-|
口⑤②口 |④---|
口口⑥口 |⑤-⑥-|
49
⑥③口口 |①--②|
②⑦口④ |③-④-|
⑤口口① |⑤---|
口口口口 |⑥-⑦-|
50
口口口口 |①---|
口口②口 |②-③-|
口①⑥③ |④---|
口⑤口④ |⑤-⑥-|
51
⑤③口⑤ |①--②|
④①②④ |③-④-|
口口口口 |⑤---|
口口口口 |----|
52
口口①② |①---|
⑥②口口 |②-③-|
①⑤③④ |④---|
口①④口 |⑤-⑥-|
53
口③①④ |①--②|
口⑦②口 |③-④-|
⑤口⑥口 |⑤---|
⑥口口口 |⑥-⑦-|
54
口①④⑥ |①---|
①口③④ |②-③-|
口②⑤口 |④---|
口口口② |⑤-⑥-|
55
⑥①③口 |①--②|
④②⑥口 |③-④-|
口⑦口⑤ |⑤---|
口口口口 |⑥-⑦-|
56
口口口② |①---|
⑥②口口 |②-③-|
①⑤③④ |④---|
口①④口 |⑤-⑥-|
57
口③①④ |①--②|
口⑦②口 |③-④-|
⑤口⑥口 |⑤---|
⑥口口口 |⑥-⑦-|
58
口①口口 |①---|
①口③口 |②-③-|
口②口口
口口口②

口口④口
⑥口口④
口口口口 |④---|
口口⑤口 |⑤-⑥-|
59
口①④口 |①--②|
口②口③ |③-④-|
口口口口
口口口口

口⑥口⑥
口口⑥口
口⑥⑤⑥ |⑤---|
口口口口 |⑥---|
60
口口口口 |①---|
口①④① |②-③-|
口⑤③口 |--④-|
⑥②口口 |⑤-⑥-|
61
①口①口 |①---|
④③口口 |②-③-|
口⑤②口 |--④-|
口口⑥口 |⑤-⑥-|
62
口①口① |①---|
口③④口 |②-③-|
②⑤口口 |--④-|
⑥口口口 |⑤-⑥-|
63
口口口口 |①---|
①③④② |②---|
②④③① |③---|
口口口口 |④---|
64
口①口① |①---|
口口④口 |②-③-|
口⑤③口 |--④-|
⑥②口口 |⑤-⑥-|
65
①口①口 |①---|
④③口口 |②-③-|
口⑤②口 |--④-|
口口⑥口 |⑤-⑥-|
66
口①口① |①---|
口口④口 |②-③-|
口⑤③口 |--④-|
⑥②口口 |⑤-⑥-|
67
口⑤③⑤ |①-②-|
口①⑤② |③-④-|
口⑤④⑤ |⑤---|
口口口口 |----|
68
口口口口 |①-②-|
口口口口 |③-④-|
⑤⑥⑧⑦ |⑤-⑥-|
①②④③ |⑦-⑧-|
69
⑤⑤口口 |①-②-|
①②④③ |③-④-|
口口口口 |⑤---|
口口口口 |----|


不確定度: 0

最終更新:2013年06月30日 19:58