灼熱の翼
マジックアカデミー管弦楽団×劇団レコード

BASIC

Level: 3
BPM: 166
Notes: 175

1
口口口口 |----|
口口口口 |----|
口口口口 |----|
口口口口 |----|
2
口口口口 |①---|
口口②口 |----|
口口①口 |②---|
口口口口 |----|
3
口口口口 |①---|
口①口口 |----|
口②口口 |②---|
口口口口 |----|
4
口口口口 |①---|
口口②口 |----|
口口①口 |②---|
口口口口 |----|
5
口口口口 |①---|
口①口口 |----|
口②口口 |②---|
口口口口 |----|
6
口口④口 |①---|
口口③口 |②---|
口口②口 |③---|
口口①口 |④---|
7
口①口口 |①---|
口②口口 |②---|
口③口口 |③---|
口④口口 |④---|
8
口口④口 |①---|
口口③口 |②---|
口口②口 |③---|
口口①口 |④---|
9
口①口口 |①---|
口②口口 |②---|
口③口口 |③---|
口④口口 |④---|
10
口口口口 |①---|
②口口② |----|
①口口① |②---|
口口口口 |----|
11
口口口口 |①---|
口①①口 |----|
口②②口 |②---|
口口口口 |----|
12
口口口口 |①---|
②口口② |----|
①口口① |②---|
口口口口 |----|
13
口口口口 |①---|
口①①口 |----|
口②②口 |②---|
口口口口 |----|
14
口口口口 |①---|
口口口① |----|
口口口口 |----|
口口口口 |----|
15
口口口口 |①---|
口口①口 |----|
口口口口 |----|
口口口口 |----|
16
口口口口 |①---|
①口口口 |----|
口口口口 |----|
口口口口 |----|
17
口口口口 |①---|
口①口口 |----|
口口口口 |----|
口口口口 |----|
18
口口口口 |①---|
口口口口 |----|
口口口① |----|
口口口口 |----|
19
口口口口 |①---|
口口口口 |----|
口口①口 |----|
口口口口 |----|
20
口口口口 |①---|
口口口口 |----|
①口口口 |----|
口口口口 |----|
21
口口口口 |①---|
口口口口 |----|
口①口口 |----|
口口口口 |----|
22
口口口口 |①---|
口口②口 |----|
口口①口 |②---|
口口口口 |----|
23
②①口口 |①---|
口口口口 |----|
口口口口 |②---|
口口口口 |----|
24
口口口口 |①---|
口②口口 |----|
口①口口 |②---|
口口口口 |----|
25
口口①② |①---|
口口口口 |----|
口口口口 |②---|
口口口口 |----|
26
口口口口 |①---|
口口②口 |----|
口口①口 |②---|
口口口口 |----|
27
②①口口 |①---|
口口口口 |----|
口口口口 |②---|
口口口口 |----|
28
口口口口 |①---|
口②口口 |----|
口①口口 |②---|
口口口口 |----|
29
口口①口 |①---|
口口口口 |----|
口②②口 |②---|
口口口口 |----|
30
口口口口 |①---|
口①①口 |----|
口口口口 |----|
口口口口 |----|
31
口口口口 |①---|
口口口口 |----|
口①①口 |----|
口口口口 |----|
32
口口口口 |①---|
口①①口 |----|
口口口口 |----|
口口口口 |----|
33
口口口口 |①---|
口口口口 |----|
口①①口 |----|
口口口口 |----|
34
口口口口 |①---|
①②③口 |②---|
口口口口 |③---|
口口口口 |----|
35
口口口口 |①---|
口口口口 |②---|
口③②① |③---|
口口口口 |----|
36
口口口口 |①---|
口①①口 |----|
口②②口 |②---|
口口口口 |----|
37
口口口口 |①---|
口①①口 |----|
口口口口 |----|
口口口口 |----|
38
口口口口 |----|
口口口口 |----|
口口口口 |----|
口口口口 |----|
39
口口口口 |①---|
口①①口 |----|
口①①口 |----|
口口口口 |----|
40
口口口口 |①---|
①②③口 |②---|
口口口口 |③---|
口口口口 |----|
41
口口口口 |①---|
口口口口 |----|
口①①口 |----|
口口口口 |----|
42
口口口口 |①---|
口③②① |②---|
口口口口 |③---|
口口口口 |----|
43
口口口口 |①---|
口口口口 |----|
口①①口 |----|
口口口口 |----|
44
口口口口 |①---|
口①①口 |----|
口口口口 |----|
口口口口 |----|
45
④口口④ |①---|
③口口③ |②---|
②口口② |③---|
①口口① |④---|
46
口口口口 |①---|
口①①口 |----|
口①①口 |----|
口口口口 |----|
47
口口口口 |①---|
①口口① |----|
①口口① |----|
口口口口 |----|
48
口口口口 |①---|
①②③口 |②---|
口口口口 |③---|
口口口口 |----|
49
口口口口 |①---|
口口口口 |----|
口①①口 |----|
口口口口 |----|
50
口口口口 |①---|
口③②① |②---|
口口口口 |③---|
口口口口 |----|
51
口口口口 |①---|
口口口口 |----|
口①①口 |----|
口口口口 |----|
52
口口口口 |①---|
口①①口 |----|
口口口口 |----|
口口口口 |----|
53
口①①口 |①---|
口口口口 |----|
口口口口 |----|
口口口口 |----|
54
口口口口 |①---|
①口口① |----|
口口口口 |----|
口口口口 |----|
55
口口口口 |①---|
口口②口 |----|
口口①口 |②---|
口口口口 |----|
56
口口口口 |①---|
口①口口 |----|
口②口口 |②---|
口口口口 |----|
57
口口口口 |①---|
口口②口 |----|
口口①口 |②---|
口口口口 |----|
58
口口口口 |①---|
口①口口 |----|
口②口口 |②---|
口口口口 |----|
59
口口④口 |①---|
口口③口 |②---|
口口②口 |③---|
口口①口 |④---|
60
口①口口 |①---|
口②口口 |②---|
口③口口 |③---|
口④口口 |④---|
61
口口④口 |①---|
口口③口 |②---|
口口②口 |③---|
口口①口 |④---|
62
口①口口 |①---|
口②口口 |②---|
口③口口 |③---|
口④口口 |④---|
63
口口口口 |①---|
②口口② |----|
①口口① |②---|
口口口口 |----|
64
①②②① |①---|
口口口口 |----|
口口口口 |②---|
口口口口 |----|
65
口口口口 |①---|
口①①口 |----|
口口口口 |----|
口口口口 |----|
66
口口口口 |①---|
①口口① |----|
②口口② |②---|
口口口口 |----|
67
口口口口 |①---|
口①①口 |----|
口口口口 |----|
口口口口 |----|
68
口口口口 |①---|
口口口口 |----|
口①①口 |----|
口口口口 |----|


不確定度: 0

最終更新:2013年06月30日 19:56