ふしぎなくすり
上野圭市 feat. SATOE

ADVANCED

Level: 5
BPM: 162
Notes: 410

1
口口口口 |----|
口口口口 |----|
口口口口 |----|
口口口口 |----|
2
口口口口 |①---|
口口口口 |----|
口②②口 |②---|
口口①口 |----|
3
②②②② |①---|
①口口① |----|
口口口口 |②---|
口口③口 |--③-|
4
口④口⑤ |--①-|
口③口口 |②---|
口②①口 |③---|
口口口口 |④-⑤-|
5
口口③口 |--①-|
口口②① |②---|
口口③口 |③---|
口④口口 |--④-|
6
⑤口④口 |--①-|
口口③口 |②---|
口①②口 |③---|
口口口口 |④-⑤-|
7
口③口口 |--①-|
①口口口 |--②-|
②③口口 |③---|
口口④口 |--④-|
8
口④口⑤ |--①-|
口③口口 |②---|
口②①口 |③---|
口口口口 |④-⑤-|
9
口口③口 |--①-|
口口②① |②---|
口口③口 |③---|
口④口口 |--④-|
10
⑤口④口 |--①-|
口口③口 |②---|
口①②口 |③---|
口口口口 |④-⑤-|
11
口口口口 |--①-|
①口口口 |--②-|
②口口口
口口口口

口③口口
④口口④
口③口口 |③---|
口口口口 |--④-|
12
口⑦⑦口 |--①-|
口②①口 |②-③-|
口④③口 |④-⑤-|
口⑥⑤口 |⑥-⑦-|
13
口⑤⑤口 |--①-|
口口①口 |②-③-|
④②口④ |④---|
口口③口 |--⑤-|
14
口口口口 |--①-|
口①口口 |②-③-|
口口②口
口③口口

口⑤口口
口⑤⑤口
④口口④ |④---|
口口口口 |--⑤-|
15
口口口口 |--①-|
②口口① |②-③-|
④口口③ |④---|
⑥口口⑤ |⑤-⑥-|
16
口口口口 |----|
⑤口口⑤ |①-②-|
口④③口 |③-④-|
口②①口 |--⑤-|
17
口口口口 |----|
口口口口 |----|
口口口口 |----|
口①①口 |--①-|
18
③①①③ |--①-|
④口口④ |②---|
口口口口 |③---|
②口口② |--④-|
19
口⑦⑦口 |--①-|
口②①口 |②-③-|
口④③口 |④-⑤-|
口⑥⑤口 |⑥-⑦-|
20
口⑤⑤口 |--①-|
口口①口 |②-③-|
④②口④ |④---|
口口③口 |--⑤-|
21
口⑤⑤⑤ |--①-|
口①⑤口 |②-③-|
④口②④ |④---|
口③口口 |--⑤-|
22
口口口口 |--①-|
口②口① |②-③-|
口④口③ |④---|
口⑤口⑥ |⑤-⑥-|
23
②①①③ |----|
④①口⑤ |①---|
口口口口 |②-③-|
口口口口 |④-⑤-|
24
口口口口 |----|
口口口口 |----|
口口口口 |----|
口口口口 |----|
25
④口口④ |----|
口③②口 |①---|
口口口口 |②-③-|
口口①口 |--④-|
26
口口口口 |----|
口①口① |----|
口③①② |①---|
口口口口 |②-③-|
27
口口口口 |----|
口口③口 |----|
口②口口 |--①-|
口口①口 |②-③-|
28
①②②① |----|
④②③口 |①---|
口口口口 |②---|
口口口口 |③-④-|
29
口口口口 |----|
口口口口 |----|
口口口口 |----|
口口①口 |①---|
30
⑤口口④ |①---|
口②③⑥ |②-③-|
口口①口 |--④-|
口口口口 |⑤-⑥-|
31
口口口口 |----|
口①①口 |--①-|
口口口口 |----|
口口口口 |----|
32
口口口④ |①---|
口口口③ |②---|
口口口② |③---|
口口口① |④---|
33
口①①口 |①---|
口①①口 |----|
口②②口 |②---|
口口口口 |----|
34
口口口口 |①---|
口口②口 |--②-|
口口口口
口口①口

口口口口
口③口口
口口口口 |③---|
口④④口 |--④-|
35
③①①③ |--①-|
④口口④ |②---|
口口口口 |③---|
②口口② |--④-|
36
口⑦⑦口 |--①-|
口②①口 |②-③-|
口④③口 |④-⑤-|
口⑥⑤口 |⑥-⑦-|
37
口⑤⑤口 |--①-|
口口①口 |②-③-|
④②口④ |④---|
口口③口 |--⑤-|
38
口⑤⑤口 |--①-|
口①⑤口 |②-③-|
④口②④ |④---|
口③口口 |--⑤-|
39
口口口口 |----|
①④③① |①---|
口②②口 |②---|
口口口口 |③-④-|
40
④口口④ |----|
口③②口 |①---|
口口口口 |②-③-|
口①①口 |--④-|
41
口口口口 |----|
口口口口 |----|
口口口口 |----|
口口口口 |----|
42
口①①口 |----|
口②②口 |----|
口③③口 |①---②-|
口口口口 |--③---|
43
口口口口 |①---|
口口口口 |②---|
口口口口
口①①②

口口口口
口口口口
③口口口 |③---|
口口④口 |④---|
44
口口口口 |①---|
口口口口 |②---|
口①②④ |③---|
口③口口 |④---|
45
口口口口 |①---|
③口口口 |②---|
口①①口 |③---|
口口④② |④---|
46
口口口口 |①---|
口①②④ |②---|
口口口口 |③---|
口③口口 |④---|
47
③口口口 |①---|
口①①口 |②---|
口口④② |③---|
口口口口 |④---|
48
口①②④ |①---|
口口口口 |②---|
口③口口 |③---|
口口口口 |④---|
49
口①①口 |①---|
口口口② |②---|
口口口口 |③---|
③口口④ |④---|
50
口③③口 |①---|
①④④口 |②---|
②⑤⑤② |③---④-|
口口口口 |--⑤---|
51
口口口口 |①---|
口口口口 |②---|
口口口口
口①①②

口口口口
口口口口
③口口口 |③---|
口口④口 |④---|
52
口口口口 |①---|
口口口口 |②---|
口①②④ |③---|
口③口口 |④---|
53
口口口口 |①---|
③口口口 |②---|
口①①口 |③---|
口口④② |④---|
54
口口口口 |①---|
口①②④ |②---|
口口口口 |③---|
口③口口 |④---|
55
③口口口 |①---|
口①①口 |②---|
口口④② |③---|
口口口口 |④---|
56
口①②④ |①---|
口口口口 |②---|
口③口口 |③---|
口口口口 |④---|
57
口①①口 |①---|
口口口② |②---|
口口口口 |③---|
③口口④ |④---|
58
口口口口 |①---|
①口④口 |②---|
③口②口 |③---|
口口口口 |④---|
59
口口口口 |①---|
口口口口 |②---|
口④③口 |③---|
口②①口 |④---|
60
口④③口 |①---|
⑤②①⑤ |②---|
口口口口 |③---|
口口口口 |④-⑤-|
61
口⑦⑦口 |--①-|
口②①口 |②-③-|
口④③口 |④-⑤-|
口⑥⑤口 |⑥-⑦-|
62
口⑤⑤口 |--①-|
口口①口 |②-③-|
④②口④ |④---|
口口③口 |--⑤-|
63
口口口口 |--①-|
口①口口 |②-③-|
口口②口
口③口口

口⑤⑤口
口⑤⑤口
④口口④ |④---|
口口口口 |--⑤-|
64
④口口④ |----|
⑤口口⑤ |①-②-|
口②③口 |③---|
口口①口 |④-⑤-|
65
口口口口 |----|
口④④口 |①---|
口③②口 |②-③-|
口口①口 |--④-|
66
①口口① |----|
口口口口 |----|
口口口口 |----|
口口口口 |--①-|
67
口口口口 |----|
口口口口 |----|
口口口口 |----|
口口口① |--①-|
68
口⑥⑤口 |--①-|
口④③口 |②---|
口口口口 |③-④-|
口①②口 |⑤-⑥-|
69
①口口① |----|
口口口口 |①---|
⑤口口④ |②-③-|
③口⑤② |④-⑤-|
70
口④口⑤ |--①-|
口③口口 |②---|
口②①口 |③---|
口口口口 |④-⑤-|
71
口口③口 |--①-|
口口②① |②---|
口口③口 |③---|
口④口口 |--④-|
72
⑤口④口 |--①-|
口口③口 |②---|
口①②口 |③---|
口口口口 |④-⑤-|
73
口③口口 |--①-|
①口口口 |--②-|
②③口口 |③---|
口口④口 |--④-|
74
口④口⑤ |--①-|
口③口口 |②---|
口②①口 |③---|
口口口口 |④-⑤-|
75
口口③口 |--①-|
口口②① |②---|
口口③口 |③---|
口④口口 |--④-|
76
⑤口④口 |--①-|
口口③口 |②---|
口①②口 |③---|
口口口口 |④-⑤-|
77
口口口口 |--①-|
①口口口 |--②-|
②口口口
口口口口

④③口④
④口口④
口③口口 |③---|
口口口口 |--④-|
78
口口口口 |----|
口口口口 |----|
口口口口 |----|
口口口口 |----|
79
口口口口 |----|
口口口口 |----|
口口口口 |----|
口口口口 |----|
80
口口口口 |----|
口①①口 |----|
口口口口 |----|
口口口口 |--①-|


不確定度: 0

最終更新:2013年06月30日 19:54