ストレイ・マーチ
少年ゾディアック

EXTREME

Level: 9
BPM: 180
Notes: 720

1
口口口口 |------|
口口口口 |------|
口口口口 |------|
口口口口 |------|
2
口口口口 |①-----|
口①口口 |------|
②口口口 |------|
口口口口 |②-----|
3
口①口口 |①-----|
口口口口 |------|
口口口口 |------|
口口口口 |------|
4
口口口口 |①-----|
口口①口 |------|
口口口② |------|
口口口口 |②-----|
5
口①①口 |①-----|
口②②口 |------|
口口口口 |②-----|
口口口口 |------|
6
⑤口口口 |①-----|
⑧口口④ |②-③-④-|
⑦口口③ |⑤-----|
⑥①①② |⑥-⑦-⑧-|
7
口⑤口① |①-----|
口⑧④口 |②-③-④-|
口⑦③口 |⑤-----|
口⑥②口 |⑥-⑦-⑧-|
8
⑩⑦①④ |①-②-③-|
②口口⑧ |④-⑤-⑥-|
⑤⑫⑥⑪ |⑦-⑧-⑨-|
⑨口口③ |⑩-⑪-⑫-|
9
口口①口 |①-----|
②③口口 |②-③-④-|
口口④口 |⑤-----|
口口口⑤ |------|
10
②口③① |①-②-③-|
④⑥口⑤ |④-⑤-⑥-|
⑧口⑨⑦ |⑦-⑧-⑨-|
⑩⑫口⑪ |⑩-⑪-⑫-|
11
口③口① |①-----|
④口①口 |②-③-④-|
口口口⑤ |⑤-----|
口口②口 |------|
12
①口③口 |①-----|
口①口④ |②-③-④-|
⑤⑥⑥口 |⑤-----|
口②口口 |⑥-----|
13
口③⑥口 |①-----|
口口口口 |②---③-|
口口口口 |④-----|
②④①⑤ |⑤---⑥-|
14
⑦口口口 |①-----|
口⑤④口 |②-③-④-|
口③②口 |⑤-----|
口口①⑥ |⑥---⑦-|
15
口口口① |①-----|
口口⑤① |②-③-④-|
④口口口 |⑤-----|
②口③口 |------|
16
①口口口 |①-----|
①口口口 |②-③-④-|
口口口④
口③口②

⑦口⑦口
口⑤⑥口
口口口口 |⑤---⑥-|
⑥口口口 |--⑦---|
17
口③口② |①---②-|
④口口④ |--③---|
②①口口 |④-----|
口口①③ |------|
18
③口④口 |①---②-|
口口①③ |--③---|
①口口⑤ |④-----|
④②⑤② |--⑤---|
19
③①③① |①-----|
口口口口 |--②---|
②口口口 |③-----|
口②口口 |------|
20
④②⑤口 |①---②-|
②④⑥⑤ |--③---|
口口③① |④-----|
口口①③ |⑤---⑥-|
21
口口口口 |①-----|
口⑤口口 |②-③-④-|
口①口④ |⑤-----|
口③口② |------|
22
②口③口 |①-----|
④口①口 |②-③-④-|
口①⑤口 |⑤-----|
口口口口 |------|
23
口口⑥口 |①-----|
④口①口 |②-③-④-|
口①⑤⑥ |⑤-----|
②口③口 |⑥-----|
24
①⑤⑧② |①-----|
口口口⑥ |②-③-④-|
③①口口 |⑤-⑥-⑦-|
⑦口④口 |⑧-----|
25
⑤⑤口口 |①-----|
口①口④ |②-③-④-|
口口①口 |⑤-----|
口③口② |------|
26
口口⑤⑤ |①-----|
④口①口 |②-③-④-|
口①口⑦ |⑤-----|
②口③⑥ |⑥-⑦---|
27
口口口口 |①-----|
口①①口 |------|
口①①口 |------|
口口口口 |------|
28
口③②口 |①-----|
①②③① |------|
①口④① |②---③-|
口④口口 |--④---|
29
①口口① |①-----|
①口口② |②-----|
口口口③ |③-----|
口口口④ |④-----|
30
①②③④ |①-----|
③③口口 |②-----|
口④口口 |③-----|
口④口口 |④-----|
31
④口口口 |①-----|
③口①① |②-----|
②口②② |③-----|
①口口口 |④-----|
32
口口④口 |①-----|
口口④口 |②-----|
口口③③ |③-----|
④③②① |④-----|
33
①口口① |①-----|
①口口② |②-----|
④口口③ |③-----|
④口口④ |④-----|
34
①②③④ |①-----|
③③②② |②-----|
口④①口 |③-----|
口④①口 |④-----|
35
⑤⑥③④ |①-----|
③口③口 |②-----|
②口①口 |③---④-|
①口①口 |⑤-⑥---|
36
口口口④ |①-----|
口①口④ |②-----|
口①口口 |③-----|
④③②① |④-----|
37
②④③口 |①-----|
口⑦⑧⑥ |②-③-④-|
口①①⑤ |⑤-----|
口口口口 |⑥-⑦-⑧-|
38
②④③口 |①-----|
口⑦⑧⑥ |②-③-④-|
口口口⑤ |⑤-----|
①口⑤口 |⑥-⑦-⑧-|
39
②④③口 |①-----|
口⑦⑧⑥ |②-③-④-|
①口口⑤ |⑤-----|
口①口口 |⑥-⑦-⑧-|
40
②④③⑥ |①-----|
⑦口口⑧ |②-③-④-|
①①⑤⑤ |⑤-----|
口口口口 |⑥-⑦-⑧-|
41
⑤⑤口⑥ |①-----|
⑦口口口 |②-③-④-|
口③④⑧ |⑤-----|
①①口② |⑥-⑦-⑧-|
42
⑤⑤口⑥ |①-----|
⑦口口口 |②-③-④-|
口③④⑧ |⑤-----|
①①口② |⑥-⑦-⑧-|
43
⑤⑤⑥⑥ |①-----|
⑦口④口 |②-③-④-|
口③口⑧ |⑤-----|
①①口② |⑥-⑦-⑧-|
44
⑤⑤⑩口 |①-----|
⑨口④⑥ |②-③-④-|
③⑦⑧⑧ |⑤-⑥-⑦-|
①①②② |⑧-⑨-⑩-|
45
口口口口 |①---②-|
口口口口 |--③---|
③口口口 |④-----|
①①②④ |------|
46
口口口口 |①---②-|
口口口口 |--③---|
③口②口 |④-----|
口①口④ |------|
47
口口④① |①---②-|
⑤口④② |--③---|
口口口口 |④---⑤-|
①③⑥口 |--⑥---|
48
④①口口 |①---②-|
口①口④ |--③---|
口口口口 |④-----|
③口口② |------|
49
口④口口 |①---②-|
口③口口 |--③---|
口②④④ |④-----|
口①①① |------|
50
④口口口 |①---②-|
③口①① |--③---|
②口⑤口 |④-----|
①口④④ |--⑤---|
51
口口口口 |①-----|
口口口口 |------|
口口口口
①①口口

②口口口
口口口③
③口口口 |②---③-|
口④②④ |--④---|
52
③④④口 |①---②-|
④①②④ |--③---|
口②口① |④-----|
⑤口③⑤ |⑤-----|
53
口口口口 |①-----|
口①①口 |------|
①③③① |----②-|
口②②口 |--③---|
54
②①①③ |①-----|
口②③口 |--②---|
①口口① |③-----|
口口口口 |------|
55
④④⑧⑧ |①-②-③-|
①口口⑤ |④-----|
①⑥②⑤ |⑤-⑥-⑦-|
③口口⑦ |⑧-----|
56
口口口口 |①-----|
口①①口 |------|
口口口口 |------|
口①①口 |------|
57
⑧⑧④④ |①-②-③-|
①口口⑤ |④-----|
①口口⑤ |⑤-⑥-⑦-|
③⑥②⑦ |⑧-----|
58
⑧⑧④④ |①-②-③-|
①口口⑤ |④-----|
①口口⑤ |⑤-⑥-⑦-|
③⑥②⑦ |⑧-----|
59
口④②口 |①-----|
①③①③ |②-----|
②④②④ |③-----|
①口口③ |④-----|
60
①口口② |①---②-|
③⑤⑤③ |--③---|
⑤口口⑤ |④-----|
④②①④ |⑤-----|
61
②口③口 |①-----|
④口口口 |②-③-④-|
口口口口
口①①口

口口口⑤
口口口⑤
口口口口 |⑤-----|
口⑧⑦⑥ |⑥-⑦-⑧-|
62
②③④口 |①-----|
⑤⑤⑥⑥ |②-③-④-|
①口口口 |⑤---⑥-|
口⑦⑦口 |--⑦---|
63
②③④① |①-----|
③口口④ |②-----|
④①②③ |③-----|
①口口② |④-----|
64
口口口④ |①-----|
口①①口 |②-③-④-|
口③口⑤ |⑤-----|
②①①口 |------|
65
④⑧④⑧ |①-②-③-|
①口口⑤ |④-----|
①口口⑤ |⑤-⑥-⑦-|
③⑥②⑦ |⑧-----|
66
④⑧④⑧ |①-②-③-|
③口口⑦ |④-----|
①⑥②⑤ |⑤-⑥-⑦-|
①口口⑤ |⑧-----|
67
口口口口 |①-----|
口①①口 |--②---|
口口口②
口口口②

口口口口
口口④口
③口口口 |③-----|
③口口口 |----④-|
68
口口口口 |①-----|
⑧口口⑤ |②-----|
④①口⑦ |③-④-⑤-|
⑥②②③ |⑥-⑦-⑧-|
69
口③②口 |①-----|
口⑤④口 |②-③-④-|
口①①口 |⑤-----|
口口口口 |------|
70
口口口口 |①-----|
①⑥⑥① |②-③-④-|
⑥③②⑥ |⑤-----|
口⑤④口 |⑥-----|
71
⑥②③④ |①---②-|
①⑤口③ |--③---|
⑤④⑥口 |④---⑤-|
①口口② |--⑥---|
72
口②②口 |①---②-|
③⑥⑤④ |--③---|
④口⑤① |④---⑤-|
口③⑥① |--⑥---|
73
口①口口 |①-----|
⑤口口口 |②-③-④-|
口①口④ |⑤-----|
口③口② |------|
74
口口①⑦ |①-----|
⑥口口⑤ |②-③-④-|
④口①⑥ |⑤---⑥-|
②⑦③口 |--⑦---|
75
②①①口 |①---②-|
口④④③ |--③---|
③口②口 |④-----|
④口口④ |------|
76
口④④口 |①---②-|
①口口③ |--③---|
④②②④ |④-----|
③口①口 |------|
77
口③③口 |①-----|
口口口口 |--②---|
③②②③ |③-----|
口①①口 |------|
78
③⑤⑤④ |①---②-|
③口⑥④ |--③---|
口口口口 |④-----|
①①②② |⑤---⑥-|
79
口口口口 |①-----|
口⑤口口 |②-③-④-|
口①口④ |⑤-----|
口③口② |------|
80
②口③口 |①-----|
④口①口 |②-③-④-|
口①⑤口 |⑤-----|
口口口口 |------|
81
口口⑥口 |①-----|
④口①口 |②-③-④-|
口①⑤⑥ |⑤-----|
②口③口 |⑥-----|
82
①③口② |①-----|
口口⑧④ |②-③-④-|
⑦①口口 |⑤-⑥-⑦-|
⑤口⑥口 |⑧-----|
83
⑤⑤口口 |①-----|
口①口④ |②-③-④-|
口口①③ |⑤-----|
口口口② |------|
84
口口⑤⑤ |①-----|
④口①口 |②-③-④-|
③①口⑦ |⑤-----|
②口口⑥ |⑥-⑦---|
85
口口口口 |①-----|
口①①口 |------|
口①①口 |------|
口口口口 |------|
86
口口口口 |①-----|
①口口① |------|
①口口①
口口口口

口④④口
口口口口
④③③④ |②---③-|
口②②口 |--④---|
87
口口口口 |①-----|
①口口① |------|
口口口口 |------|
①口口① |------|

不確定度: 0

最終更新:2014年04月17日 14:59