chaplet
DJ TOTTO

EXTREME

Level: 10
BPM: 200
Notes: 772

1
口口口口 |----|
口口口口 |----|
口口口口 |----|
口口口口 |----|
2
口口口口 |----|
口口口口 |----|
口口口口 |----|
口口口口 |----|
3
①口⑦① |①-②-|
⑥⑧②口 |③-④-|
口③口⑤ |⑤-⑥-|
④口口口 |⑦-⑧-|
4
口口口口 |①-②-|
口口口④ |③-④-|
①口③口
口②口口

口⑤口口
⑥口口口
⑧口口口 |⑤-⑥-|
口口口⑦ |⑦-⑧-|
5
口口口① |①-②-|
口①②口 |③-④-|
口③口口
④口口口

口口⑦口
⑥⑧口口
口口口⑤ |⑤-⑥-|
口口口口 |⑦-⑧-|
6
⑦⑤口口 |①-②-|
口⑧口④ |③-④-|
①口③口 |⑤-⑥-|
口②⑥口 |⑦-⑧-|
7
口口⑦① |①-②-|
⑥⑧②口 |③-④-|
①③口⑤ |⑤-⑥-|
④口口口 |⑦-⑧-|
8
口口口口 |①-②-|
口口口④ |③-④-|
①口③口
口②口口

口⑤口口
⑥口口口
⑧口口口 |⑤-⑥-|
口口口⑦ |⑦-⑧-|
9
口口⑦① |①-②-|
⑥⑧②口 |③-④-|
口③口⑤ |⑤-⑥-|
④①口口 |⑦-⑧-|
10
⑤⑤口口 |①-②-|
口⑥口④ |③-④-|
①口③⑦ |⑤---|
口②口口 |--⑥⑦|
11
口③口口 |①---|
③口口口 |②---|
口口口口 |③---|
①④②口 |④---|
12
口③口口 |①---|
③口口口 |②---|
口口口口 |③---|
口④②① |④---|
13
口③口口 |①---|
③①①口 |②---|
口口口口 |③---|
口④②① |④---|
14
口③口口 |①---|
③口口③ |②---|
口口口口 |③---|
口④②① |④---|
15
①③口口 |①---|
③①⑤④ |②---|
⑦⑥①口 |③---|
口口②① |④⑤⑥⑦|
16
口③口口 |①---|
③口口口 |②---|
口口口① |③---|
口④②① |④---|
17
①③口口 |①---|
③①⑤④ |②---|
⑦⑥口口 |③---|
口口②① |④⑤⑥⑦|
18
③⑧④① |①-②-|
口口⑦口 |③-④-|
口口口② |⑤-⑥-|
口⑥⑤口 |⑦-⑧-|
19
②口②口 |①---|
口①口① |----|
①口①口 |②---|
口②口② |----|
20
口口口⑤ |①-②-③-|
口②口④ |④---⑤-|
①口③口
口口口口

口口口口
⑥口⑧口
⑩⑦口⑨ |⑥-⑦-⑧-|
口口口口 |⑨---⑩-|
21
⑨⑤①⑥ |①---②-|
口口口⑩ |③-④-⑤-|
⑪⑦④口 |⑥-⑦-⑧-|
口③⑧② |⑨-⑩-⑪-|
22
口⑩①口 |①-②-③-|
②④⑦口 |④-⑤-⑥-|
口⑫⑪③ |⑦-⑧-⑨-|
⑧⑥⑨⑤ |⑩-⑪-⑫-|
23
口口口口 |①---|
②③④① |----②③|
口口口口 |④---|
口口口口 |----|
24
④⑧②⑥ |①-②-③-|
⑩口口口 |④---⑤-|
⑤口口口 |⑥-⑦-⑧-|
⑨③⑦① |⑨---⑩-|
25
④⑩①⑦ |①-②-③-|
口②⑤口 |④-⑤-⑥-|
⑧⑫③⑪ |⑦-⑧-⑨-|
口⑥口⑨ |⑩-⑪-⑫-|
26
⑥口④⑤ |①---|
口口口① |②-③-④-|
⑧口⑦口 |⑤---|
②③口口 |⑥-⑦-⑧-|
27
⑫④⑦口 |①-②-③-|
②口⑤① |④-⑤-⑥-|
口⑧口⑪ |⑦-⑧-⑨-|
⑩⑥⑨③ |⑩-⑪-⑫-|
28
口口口⑤ |①-②-③-|
口②口④ |④---⑤-|
①口③口
口口口口

口口口口
⑥口⑧口
⑩⑦口⑨ |⑥-⑦-⑧-|
口口口口 |⑨---⑩-|
29
⑨⑤①⑥ |①---②-|
口口口⑩ |③-④-⑤-|
口⑦④口 |⑥-⑦-⑧-|
③⑪⑧② |⑨-⑩-⑪-|
30
口⑩①⑦ |①-②-③-|
②④③口 |④-⑤-⑥-|
⑥⑫⑪口 |⑦-⑧-⑨-|
⑧口⑨⑤ |⑩-⑪-⑫-|
31
②⑥③⑤ |①---②-|
口④④① |--③---|
口口口① |④---⑤-|
⑥②⑤③ |--⑥---|
32
②⑤口口 |①---|
①口口① |--②-③-|
①口③① |④---|
口口口④ |⑤---|
33
口口①② |①---|
口口口① |--②-③-|
①③口⑤ |④---|
④①口口 |⑤---|
34
①①⑤⑤ |①---|
⑦③④⑧ |②-③-④-|
口口②⑥ |⑤---|
⑤⑤①① |⑥-⑦-⑧-|
35
①⑨⑩⑧ |①-②-③-|
⑪⑤⑥⑫ |④-⑤-⑥-|
口③④⑩ |⑦-⑧-⑨-|
⑦⑦④② |⑩-⑪-⑫-|
36
①⑤⑥口 |①---|
口口④口 |--②-③-|
①③口口 |④---|
口口②口 |--⑤-⑥-|
37
⑧口⑧① |①---②-|
⑥③⑦② |③-④-⑤-|
口口④口 |⑥---⑦-|
⑥⑤⑦口 |--⑧---|
38
口①口① |①---|
口⑥⑤④ |--②-③-|
③口口口 |④---|
口口口② |--⑤-⑥-|
39
②⑦③⑦ |①---②-|
①口口⑧ |③-④-⑤-|
⑥④⑥口 |⑥---⑦-|
口口⑤⑧ |--⑧---|
40
口口口口 |①---|
口①口口 |----|
口④口口 |----|
③①口② |②-③-④-|
41
③⑨⑨④ |①-②-③-|
⑧②⑤口 |④-⑤-⑥-|
⑧口①⑥ |⑦---⑧-|
口⑦⑦口 |--⑨---|
42
口口口口 |①---|
口口口① |----|
口口①口 |----|
口口口口 |----|
43
口②口② |①---|
口口口口 |----|
口口口口 |②---|
①口①口 |----|
44
①⑤⑥口 |①---|
口口④口 |--②-③-|
①③口口 |④---|
口口②口 |--⑤-⑥-|
45
⑧口⑧① |①---②-|
⑥③⑦② |③-④-⑤-|
口口④口 |⑥---⑦-|
⑥⑤⑦口 |--⑧---|
46
口①口① |①---|
口口⑥④ |--②-③-|
③⑤口口 |④---|
口口口② |--⑤-⑥-|
47
②①口口 |①---②-|
③⑪⑩⑩ |③-④-⑤-|
④⑨⑧⑧ |⑥-⑦-⑧-|
⑤⑦⑥⑥ |⑨-⑩-⑪-|
48
口口①① |①---|
口口口口 |----|
口口③口 |----|
口口口② |--②-③-|
49
①③⑥④ |①-②-③-|
⑤口口② |④-⑤-⑥-|
⑦⑨⑫⑩ |⑦-⑧-⑨-|
口⑪⑧口 |⑩-⑪-⑫-|
50
口口②口 |①---|
口①口口 |----|
③口口口 |----|
口口口口 |--②-③-|
51
口口口口 |①---|
⑤④③② |----|
⑨⑧⑦⑥ |②③④⑤|
口口①口 |⑥⑦⑧⑨|
52
口口口口 |①---|
口口口口 |----|
口口口口 |----|
口①①口 |----|
53
口口口口 |①---|
口①①口 |----|
口口口口 |----|
口口口口 |----|
54
①口口① |①---|
口口口口 |----|
口口口口 |----|
口口口口 |----|
55
口口口口 |①---|
口口口口 |----|
口②②口 |②---|
口①①口 |----|
56
口口口口 |①---|
①口口① |----|
口口口口 |----|
口口口口 |----|
57
口①①口 |①---|
口口口口 |----|
口口口口 |----|
口口口口 |----|
58
①口口① |①---|
口口口口 |----|
口口口口 |----|
口口口口 |----|
59
②②口口 |①---|
口③口口 |----|
口①①④ |②---|
口口口口 |--③④|
60
口③口口 |①---|
③口口口 |②---|
口口口口 |③---|
①④②口 |④---|
61
①③口口 |①---|
③①口口 |②---|
口口口口 |③---|
口④②① |④---|
62
口③口口 |①---|
③①①口 |②---|
口口口口 |③---|
口④②① |④---|
63
①③口口 |①---|
③①口③ |②---|
口口口口 |③---|
口④②① |④---|
64
①③口口 |①---|
③①口口 |②---|
口口①口 |③---|
口④②① |④---|
65
①③口口 |①---|
③口①③ |②---|
口①口口 |③---|
口④②① |④---|
66
①②口口 |①---|
②①口口 |----|
口口口② |②---|
口口②① |----|
67
②口②口 |①---|
口①口① |----|
①口①口 |②---|
口②口② |----|
68
口口口⑤ |①-②-③-|
口②口④ |④---⑤-|
①口③口
口口口口

口口口口
⑥口⑧口
⑩⑦口⑨ |⑥-⑦-⑧-|
口口口口 |⑨---⑩-|
69
⑨⑤①⑥ |①---②-|
口口口⑩ |③-④-⑤-|
⑪⑦④口 |⑥-⑦-⑧-|
口③⑧② |⑨-⑩-⑪-|
70
口⑩①口 |①-②-③-|
②④⑦口 |④-⑤-⑥-|
口⑫⑪③ |⑦-⑧-⑨-|
⑧⑥⑨⑤ |⑩-⑪-⑫-|
71
口口口口 |①---|
②③④① |----②③|
口口口口 |④---|
口口口口 |----|
72
④⑧②⑥ |①-②-③-|
⑩口口口 |④---⑤-|
⑤口口① |⑥-⑦-⑧-|
⑨③⑦① |⑨---⑩-|
73
④⑩①⑦ |①-②-③-|
口②⑤口 |④-⑤-⑥-|
⑧⑫③⑪ |⑦-⑧-⑨-|
口⑥口⑨ |⑩-⑪-⑫-|
74
口口口口 |①---|
口②②① |----|
口口口口 |②---|
口口口口 |----|
75
④④④口 |①---|
②④口② |②---|
口④口口 |③---|
③①①③ |④---|
76
口口口⑤ |①-②-③-|
口口口④ |④---⑤-|
①口③口
口②口口

口口口口
⑥口⑦口
⑩⑧口⑨ |⑥-⑦-⑧-|
口口口口 |⑨---⑩-|
77
⑨⑤①⑥ |①---②-|
口口口⑩ |③-④-⑤-|
口⑦④口 |⑥-⑦-⑧-|
③⑪⑧② |⑨-⑩-⑪-|
78
口⑩①⑦ |①-②-③-|
②④③口 |④-⑤-⑥-|
⑥⑫⑪口 |⑦-⑧-⑨-|
⑧口⑨⑤ |⑩-⑪-⑫-|
79
②⑥③⑤ |①---②-|
口④④① |--③---|
口口口① |④---⑤-|
⑥②⑤③ |--⑥---|
80
②⑤口口 |①---|
①口口① |--②-③-|
①口③① |④---|
口口口④ |⑤---|
81
口口①② |①---|
口口口① |--②-③-|
①③口⑤ |④---|
④①口口 |⑤---|
82
①①口口 |①---|
口口④口 |②-③-④-|
口③②口
口口①①

口口⑤⑤
⑦口口口
口口口⑥ |⑤---|
⑤⑤口⑧ |⑥-⑦-⑧-|
83
①⑤⑧⑩ |①-②-③-|
⑪③⑥② |④-⑤-⑥-|
①⑨④⑩ |⑦-⑧-⑨-|
⑦⑦④⑫ |⑩-⑪-⑫-|
84
①⑥⑥口 |①-②-③-|
⑩②⑦⑤ |④-⑤---|
①⑨④口 |⑥-⑦-⑧-|
口⑧③口 |⑨-⑩---|
85
④⑥⑦① |①-②-③-|
口②口⑪ |④-⑤-⑥-|
⑧口⑤① |⑦-⑧-⑨-|
⑩⑫⑨③ |⑩-⑪-⑫-|
86
⑤⑥⑥① |①-②-③-|
⑦④②⑩ |④-⑤---|
口③⑨① |⑥-⑦-⑧-|
口口⑧口 |⑨-⑩---|
87
口⑦⑧② |①-②-③-|
⑨口⑥口 |④-⑤-⑥-|
①⑪口⑫ |⑦-⑧-⑨-|
⑤③⑩④ |⑩-⑪-⑫-|
88
①⑥⑥口 |①-②-③-|
⑩②⑦⑤ |④-⑤---|
①⑨④口 |⑥-⑦-⑧-|
⑧口口③ |⑨-⑩---|
89
④⑩⑦① |①-②-③-|
口②⑪口 |④-⑤-⑥-|
⑧口⑤① |⑦-⑧-⑨-|
⑫⑥③⑨ |⑩-⑪-⑫-|
90
⑤口口⑩ |①-②-③-|
口④口③ |④---⑤-|
⑦②⑥① |⑥-⑦-⑧-|
口⑨口⑧ |⑨---⑩-|
91
⑦①⑫口 |①-②-③-|
④⑧②口 |④-⑤-⑥-|
⑩⑤⑨③ |⑦-⑧-⑨-|
口⑪⑥口 |⑩-⑪-⑫-|
92
口口口口 |①---|
口口口① |----|
口口口口 |----|
口口口口 |----|

不確定度: 0

最終更新:2014年04月17日 15:00