Heart of Gold
Alice Nine

ADVANCED

Level: 6
BPM: 195
Notes: 373

1
口口口口 |----|
口口口口 |----|
口口口口 |----|
口口口口 |----|
2
口口④口 |①-②-|
口⑤口口 |③---|
①口③口 |④---|
口②口口 |⑤---|
3
口口口口 |①---|
口口口口 |②---|
③④口口 |③---|
口口②① |④---|
4
口口②口 |①-②-|
口③口① |③---|
口口⑤口 |④---|
口④口口 |⑤---|
5
①②口口 |①---|
口口④③ |②---|
口口口口 |③---|
口口口口 |④---|
6
口口④④ |①-②-|
⑤⑤口口 |③---|
①口③口 |④---|
口②口口 |⑤---|
7
口口口口 |①---|
口口口口 |②---|
③④口口 |③---|
口口②① |④---|
8
口口②口 |①-②-|
口③口① |③---|
口口⑤⑤ |④---|
④④口口 |⑤---|
9
①②口口 |①---|
口口④③ |②---|
口口口口 |③---|
口口口口 |④---|
10
口口④④ |①-②-|
⑤⑤口口 |③---|
①口③口 |④---|
口②口口 |⑤---|
11
口口口口 |①---|
口口口口 |②---|
③④口口 |③---|
口口②① |④---|
12
口口②口 |①-②-|
口③口① |③---|
口口⑤⑤ |④---|
④④口口 |⑤---|
13
①⑤口口 |①---|
口口口④ |②-③-|
口③口口 |④-⑤-|
口口口② |----|
14
口口口口 |①---|
①口②口 |----|
口③口口 |----|
口口口口 |②-③-|
15
口口⑤口 |①---|
④口口口 |----|
口口③口 |②-③-|
②口①口 |④-⑤-|
16
口口口口 |--①-|
口口口① |②---|
口②口口 |----|
口口口口 |----|
17
口④口口 |----|
口口口③ |①-②-|
口②口口 |③-④-|
口口口① |----|
18
口口口口 |①---|
①口②口 |----|
口③口口 |----|
口口口口 |②-③-|
19
②口③口 |①---|
口④口口 |--②-|
③口口口 |--③-|
口口①口 |--④-|
20
口口口口 |--①-|
口口口① |--②-|
口口②口 |--③-|
④①口③ |--④-|
21
口口口③ |--①-|
①口④口 |--②-|
口②口口 |--③-|
口口①口 |④---|
22
③口③口 |----|
口①口① |①---|
口口口口 |②---|
②口口口 |③---|
23
口③口③ |----|
①口①口 |①---|
口口口口 |②---|
口口口② |③---|
24
口口口⑤ |----|
口口②① |①-②-|
③④口口 |③-④-|
⑤口口口 |--⑤-|
25
①口口口 |--①-|
③口口② |--②-|
②口口③ |--③-|
口④④① |④---|
26
③口③口 |----|
口①口① |①---|
口口口口 |②---|
②口口口 |③---|
27
口③口③ |----|
①口①口 |①---|
口口口口 |②---|
口口口② |③---|
28
口口口⑤ |----|
口口④③ |①-②-|
①②口口 |③-④-|
⑤口口口 |--⑤-|
29
①口口口 |--①-|
③口口③ |--②-|
④②②④ |----|
口口口① |③-④-|
30
口口口口 |----|
②②②② |----|
口口口口 |①---|
口①①口 |②---|
31
①①①① |①---|
口口口口 |----|
②口口③ |----|
③口口② |②-③-|
32
口①①口 |----|
口口口口 |----|
②②②② |①---|
口口口口 |②---|
33
②口口③ |①---|
③口口② |----|
口口口口 |----|
①①①① |②-③-|
34
口口口口 |----|
口口①口 |----|
口②口口 |①---|
口口口口 |②---|
35
④口口口 |①---|
口口口④ |----|
口口③口 |②---|
②口①口 |③-④-|
36
口口口① |----|
口口口口 |①---|
②口口口 |②---|
口口口③ |③---|
37
口①①口 |①---|
口②②口 |--②-|
口③③口 |----|
口口口口 |③---|
38
口口口口 |----|
②②②② |----|
口口口口 |①---|
口①①口 |②---|
39
①①①① |①---|
②口口③ |----|
口口口口 |----|
③口口② |②-③-|
40
口①①口 |----|
口口口口 |----|
②②②② |①---|
口口口口 |②---|
41
②口口③ |①---|
口口口口 |----|
③口口② |----|
①①①① |②-③-|
42
口口口口 |----|
口口①口 |----|
口②口口 |①---|
口口口口 |②---|
43
④口口口 |①---|
口口口④ |----|
口口③口 |②---|
②口①口 |③-④-|
44
口口口① |----|
口口口口 |①---|
②口口口 |②---|
口口口③ |③---|
45
口口口口 |①---|
口①①口 |--②-|
口②②口 |----|
口③③口 |③---|
46
口口口口 |----|
口口③口 |----|
口②口④ |①-②-|
①口口口 |③-④-|
47
③口③口 |①---|
口口口口 |--②-|
②口②口 |----|
口口①口 |③---|
48
口口口口 |----|
口口口口 |----|
口口口口 |----|
口口口口 |----|
49
口②口① |①---|
口口口口 |--②-|
口③口② |----|
口口口口 |③---|
50
口口口口 |①---|
①口口口 |----|
口口口口 |----|
②口①口 |②---|
51
口口口口 |①---|
口口①① |--②-|
②②口口 |---③|
口口口③ |----|
52
口口口口 |①---|
①①口口 |--②-|
口口②② |----|
③口口口 |③---|
53
口口①① |①---|
口口口口 |--②-|
②②口口 |----|
口口口③ |③---|
54
③口口① |①-②-|
②口口④ |--③-|
③口口① |--④-|
口⑤⑤口 |⑤---|
55
③口③口 |①---|
口口口口 |--②-|
②①②① |----|
口口口口 |③---|
56
口口口口 |----|
口口口口 |----|
口口口口 |----|
口口口口 |----|
57
口②口① |①---|
口口口口 |--②-|
口③口② |----|
口口口口 |③---|
58
口口口口 |①---|
①口口口 |----|
口口口口 |----|
②口①口 |②---|
59
口口口口 |①---|
口口①① |--②-|
②②口口 |---③|
口口口③ |----|
60
口口口口 |①---|
①①口口 |--②-|
口口②② |----|
③口口口 |③---|
61
口口①① |①---|
口口口口 |--②-|
②②口口 |----|
口口口③ |③---|
62
③口口① |①-②-|
②口口④ |--③-|
③口口① |--④-|
口⑤⑤口 |⑤---|
63
②口口② |①---|
口口口口 |--②-|
口口口口 |----|
①口口① |----|
64
口口口口 |----|
口口口口 |----|
口口口口 |----|
口口口口 |----|
65
口口口口 |----|
口口口口 |----|
口口口口 |----|
口口口口 |----|
66
③口口① |①-②-|
②口口④ |--③-|
③口口① |--④-|
口⑤⑤口 |⑤---|
67
口口口口 |①---|
口①①口 |--②-|
口口口口 |----|
②口口② |----|
68
口口口口 |----|
口口口口 |----|
口口口口 |----|
口口口口 |----|
69
口口④口 |①-②-|
口⑤口口 |③---|
①口③口 |④---|
口②口口 |⑤---|
70
口口口口 |①---|
口口口口 |②---|
③④口口 |③---|
口口②① |④---|
71
口口②口 |①-②-|
口③口① |③---|
口口⑤口 |④---|
口④口口 |⑤---|
72
①②口口 |①---|
口口④③ |②---|
口口口口 |③---|
口口口口 |④---|
73
口口④④ |①-②-|
⑤⑤口口 |③---|
①口③口 |④---|
口②口口 |⑤---|
74
口口口口 |①---|
口口口口 |②---|
③④口口 |③---|
口口②① |④---|
75
口口②口 |①-②-|
口③口① |③---|
口口⑤⑤ |④---|
④④口口 |⑤---|
76
①②口口 |①---|
口口④③ |②---|
口口口口 |③---|
口口口口 |④---|
77
口口④④ |①-②-|
⑤⑤口口 |③---|
①口③口 |④---|
口②口口 |⑤---|
78
口口口口 |①---|
口口口口 |②---|
③④口口 |③---|
口口②① |④---|


不確定度: 0

タグ:

+ タグ編集
  • タグ:

このサイトはreCAPTCHAによって保護されており、Googleの プライバシーポリシー利用規約 が適用されます。

最終更新:2013年04月07日 23:44