Windy Fairy
DJ TOTTO

EXTREME

Level: 9
BPM: 180
Notes: 716

1
口口口口 |----|
口口口口 |----|
口口口口 |----|
口口口口
2
口①口口 |①---|
口口口② |--②-|
口口④口 |③-④-|
口③口口
3
口口口口 |①---|
①口口口 |----|
口口口口 |②---|
口口口②
4
①口口④ |①---|
口③口口 |--②-|
口口口② |③-④-|
口口口口
5
口口口口 |①---|
口口②口 |②---|
①口口口 |③---|
口③口口
6
口口口口 |①---|
口口④口 |--②-|
口口②口 |③-④-|
③口口①
7
①口口② |①---|
口口口口 |----|
口口口口 |②---|
口口口口
8
口①口口 |①---|
口口口口 |----|
口口口口 |----|
口口口口
9
口口口口 |----|
口口口口 |----|
口口口口 |----|
口口口口
10
⑤口②口 |①-②③|
口③口⑥ |④-⑤-|
⑦口④口 |⑥-⑦-|
①①口口
11
口口口口 |①---|
口③口口 |----|
口口口口 |②-③-|
口口②①
12
④口口① |①---|
②口口⑤ |②-③-|
口口口口 |④-⑤-|
①①口③
13
⑦⑤⑤口 |①-②③|
⑦②口口 |④-⑤-|
①①③口 |⑥-⑦-|
口④⑥⑥
14
口口⑦① |①-②③|
口④③① |④-⑤-|
⑥②口⑤ |⑥-⑦-|
口口口口
15
③口口口 |①---|
口口口口 |----|
口口口② |②-③-|
①①口①
16
口口①① |①--②|
③③②④ |--③-|
①①口口 |④-⑤-|
口⑤③口
17
①①口口 |①---|
⑧⑥⑦⑨ |②③④⑤⑥⑦|
②③④⑤ |⑧⑨⑩⑪|
⑩口口⑪
18
⑤③②口 |①-②③|
口口⑥口 |④-⑤-|
⑦口口口 |⑥-⑦-|
口①④口
19
口口口口 |①---|
口④口口 |②---|
口②口口 |③-④-|
口口③①
20
④口口① |①---|
②口口口 |②-③-|
口口口⑤ |④-⑤-|
口口口③
21
口口口口 |①-②③|
口②口口 |④---|
①口③口 |⑤---|
口④口⑤
22
口口⑦① |①-②③|
口④③① |④-⑤-|
⑥②口⑤ |⑥-⑦-|
口口口口
23
①④口⑤ |①--②|
①口口口 |--③-|
口口③口 |④-⑤-|
口②口口
24
②口①口 |①-②-|
口④口③ |③-④-|
⑥口⑤口 |⑤-⑥-|
口口口口
25
⑪①⑥口 |①②③④|
⑤口②口 |⑤--⑥--⑦-⑧-⑨-|
口③口④ |⑩-⑪-|
⑦⑧⑨⑩
26
口口口① |①---|
②③④⑤ |---②③④|
⑥口口口 |⑤-⑥-|
口口口口
27
口口②③ |①---|
口口③口 |②---|
口口②① |③---|
口口①口
28
口③口口 |①---|
口口口口 |②---|
口口口口 |③---|
口②口①
29
⑤口②口 |①-②③|
口③④口 |④-⑤-|
①口口⑥ |⑥-⑦-|
⑦口口口
30
口口②口 |①---|
口口口口 |--②-|
口口④口 |③-④-|
口③口①
31
口①口口 |①---|
①口②口 |②---|
口③口② |③---|
③口口口
32
④口⑤口 |①-②-|
口口口③ |③-④-|
②口⑤口 |⑤---|
口口口①
33
口⑤口④ |①-②-|
③口口口 |③-④-|
口⑤口② |⑤---|
①口口口
34
口口①口 |①---|
②③④⑤ |---②③④|
口口口口 |⑤-⑥-|
⑥口口口
35
口口②③ |①---|
口口③口 |②---|
口口②① |③---|
口口①口
36
③口口口 |①---|
口口口口 |②---|
口口口口 |③---|
口②口①
37
口⑤②口 |①-②③|
口③④口 |④-⑤-|
⑦①⑥口 |⑥-⑦-|
口口口口
38
口口口口 |①---|
④口口③ |--②-|
口口口① |③-④-|
口口②口
39
口口口③ |①---|
口②③口 |②---|
口口口口 |③---|
口口口①
40
①①口口 |①-②-|
口口口② |③-④-|
口口③⑤ |⑤---|
口④口⑤
41
口口①① |①-②-|
②⑦口口 |③-④-|
⑤③⑥口 |⑤-⑥⑦|
⑤口④口
42
③④⑤⑥ |①---|
口口①口 |②--③④⑤|
口口口口 |⑥-⑦-|
⑦口口②
43
口口③口 |①---|
口口②② |②---|
口口③① |③---|
口口①口
44
口③口口 |①---|
②②口口 |②---|
口③口口 |③---|
口口口①
45
⑤口口② |①-②③|
口口⑥口 |④-⑤-|
③⑦口口 |⑥-⑦-|
①口④口
46
口②口口 |①---|
口口口⑤ |②-③-|
④口口口 |④-⑤-|
口口③①
47
①口口口 |①---|
口①②口 |②---|
口③口② |③---|
③口口口
48
口⑤⑤口 |①-②-|
口④口③ |③-④-|
②口口口 |⑤---|
口①①口
49
口口口口 |①-②-|
③⑤⑤④ |③-④-|
口口②口 |⑤---|
①口口①
50
③④⑤⑥ |①---|
口口口口 |②--③④⑤|
口①口口 |⑥-⑦-|
⑦口口②
51
口口③口 |①---|
口口②② |②---|
口口③① |③---|
口口①口
52
口③口口 |①---|
②②口口 |②---|
口③口口 |③---|
口口口①
53
口口⑥⑥ |①-②③|
⑤⑦②口 |④-⑤-|
③⑦口口 |⑥-⑦-|
①口④口
54
口口口⑤ |①---|
④口口口 |②-③-|
口口①③ |④-⑤-|
②口口①
55
①①口口 |①---|
口口口口 |②---|
②口口③ |③---|
口②③口
56
口口①① |①-②-|
口②口⑤ |③-④-|
口口③口 |⑤---|
口④口⑤
57
①①口口 |①-②-|
⑤口②口 |③-④-|
③口口口 |⑤---|
⑤口④口
58
口口①② |①--②|
口口③③ |--③-|
口口②① |④---|
口口④④
59
②①口口 |①--②|
③③口口 |--③-|
①②口口 |④---|
④④口口
60
口⑤③① |①-②-|
口口口口 |③-④-|
口口口口 |⑤-⑥-|
口⑥④②
61
①口口口 |①-②-|
口口④③ |③-④-⑤-|
口口⑥⑤ |⑥---|
②口口口
62
②①口口 |①--②|
③③口口 |--③-|
①②口口 |④---|
④④口口
63
口口①② |①--②|
口口③③ |--③-|
口口②① |④---|
口口④④
64
①③⑤口 |①-②-|
口口口口 |③-④-|
口口口口 |⑤-⑥-|
②④⑥口
65
口口口① |①-②-|
③④口口 |③-④-⑤-|
⑤⑥口口 |⑥---|
口口口②
66
口口①② |①--②|
口口③③ |--③-|
口口②① |④---|
口口④④
67
②①口口 |①--②|
③③口口 |--③-|
①②口口 |④---|
④④口口
68
口⑤③① |①-②-|
口口口口 |③-④-|
口口口口 |⑤-⑥-|
口⑥④②
69
①口口口 |①-②-|
口口④③ |③-④-⑤-|
口口⑥⑤ |⑥---|
②口口口
70
口④①口 |①-②-③-|
②口⑦⑤ |④-⑤-⑥-|
口⑧口口 |⑦-⑧-⑨-|
口⑥③⑨
71
口④⑥口 |①-②-|
口②口口 |③-④-|
③口口⑤ |⑤-⑥-|
①口口口
72
①⑦口④ |①-②-③-|
⑤口⑧② |④-⑤-⑥-|
口口口口 |⑦-⑧-⑨-|
③⑨口⑥
73
口⑥④口 |①-②-|
口口口② |③-④-|
⑤口口③ |⑤-⑥-|
口口①口
74
④口⑦① |①-②-③-|
②⑧口⑤ |④-⑤-⑥-|
口口口口 |⑦-⑧-⑨-|
⑥口⑨③
75
⑦①口④ |①-②-③-|
口口②口 |④-⑤-⑥-|
口⑤⑧口 |⑦-⑧-⑨-|
⑨③口⑥
76
②③口口 |①---|
口口口口 |----|
口口口① |--②③|
口口①口
77
口口①口 |①---|
口口口口 |----|
④口口⑤ |②③④⑤|
②口口③
78
③口口口 |①---|
①④口② |②-③④|
口口⑤口 |⑤-⑥-|
⑥口口口
79
口口①口 |①---|
口口口口 |②---|
②口口③ |③---|
口②③口
80
⑥⑤④③ |①---|
②口口① |②--③④⑤|
口口口⑦ |⑥-⑦-|
口口口口
81
口口口口 |①---|
⑤口口口 |②-③-|
③口④口 |④-⑤-|
①口②口
82
⑥口②① |①②③④|
口口④③ |⑤-⑥-|
口口口⑤ |⑦-⑧-|
口口⑧⑦
83
口⑦口口 |①②③④|
①②口⑥ |⑤-⑥-|
③④口⑧ |⑦-⑧-|
⑤口口口
84
②口②口 |①---|
口②口口 |--②-|
口口①口 |----|
口①口①
85
口②口① |①---|
①口①② |--②-|
②①口① |----|
①口②口
86
③口口口 |①---|
口④口口 |②-③④|
口口⑤② |⑤-⑥-|
⑥①口口
87
口口①口 |①---|
口口口口 |②---|
②口口③ |③---|
口②③口
88
①⑦口口 |①---|
③④⑤⑥ |②--③④⑤|
口口②口 |⑥-⑦-|
口口口口
89
口口口口 |①---|
口口口口 |②---|
②口口③ |③---|
口②③①
90
②口③口 |①---|
口④口口 |②-③④|
⑤①①口 |⑤-⑥-|
口口口⑥
91
口①口口 |①---|
⑤口口口 |②-③-|
口口④② |④-⑤-|
口③口口
92
口口口① |①---|
口②③口 |②---|
口口口口 |③---|
口口口口
93
口①②口 |①-②-|
口口口口 |③-④-|
⑦③④⑧ |⑤⑥⑦⑧|
⑤口口⑥
94
⑤④③② |①---|
①口口口 |---②③④|
口口口口 |⑤-⑥-|
口口⑥口
95
口口口口 |①---|
口①口口 |----|
口②口口 |②---|
口口口口
96
口口口① |①---|
口⑥口口 |---②③④|
口口口口 |⑤-⑥-|
②③④⑤
97
口口口⑤ |①---|
④口口口 |②-③-|
②口①③ |④-⑤-|
口口口口
98
口①②口 |①②③④|
口③④口 |⑤-⑥-|
口⑤口口 |⑦-⑧-|
口⑦⑧⑥
99
口口口⑧ |①②③④|
①⑦口② |⑤-⑥-|
③口⑥④ |⑦-⑧-|
⑤口口口
100
①口②口 |①---|
口口①② |--②-|
②①口口 |----|
口②口①
101
口①口口 |①---|
①口口口 |--②-|
口②②① |----|
②口①②
102
①②口① |①-②③|
口口③⑤ |④-⑤⑥|
口口⑥④ |⑦-⑧-|
⑧⑦口口
103
口口①口 |①---|
②口口③ |②---|
口口口口 |③---|
口口口口
104
口⑧⑦⑦ |①-②③|
口⑥口口 |④-⑤⑥|
⑤①①口 |⑦-⑧-|
口④③②
105
口口口口 |①---|
②口口③ |②---|
口口口① |③---|
②口口③
106
口口⑧口 |①--②③④|
⑦①口口 |⑤-⑥⑦|
⑤④③② |⑧-⑨-|
⑨口⑥口
107
②口口口 |①---|
口⑤④① |②-③-|
口口口口 |④-⑤-|
口③口口
108
口口①⑦ |①--②③④|
⑥口口口 |⑤-⑥-|
②③④⑤ |⑦-⑧-|
⑧口口口
109
口口口④ |①---|
口口口① |--②-|
口口②口 |③-④-|
口③口口
110
口①②口 |①②③④|
口③④⑧ |⑤-⑥-|
口⑤口口 |⑦-⑧-|
⑦口口⑥
111
③口口② |①-②-|
①口⑥口 |③-④-|
③⑤④② |⑤-⑥-|
口⑤④⑥
112
②口口② |①---|
口①口口 |--②-|
②口口② |----|
①口口口
113
③口口③ |①---|
①口口① |②---|
③②②③ |③---|
②①①②
114
口①①口 |①---|
口①①口 |----|
口口口口 |----|
口口口口

不確定度: 0

最終更新:2014年04月17日 14:56