DRAGON KILLER
96 vs. Mutsuhiko Izumi

EXTREME

Level: 10
BPM: 210
Notes: 789

1
口口口口 |------|
口①①口 |------|
口①①口 |------|
口口口口 |①-----|
2
口口口口 |①-----|
①口口① |------|
①口口① |------|
口②②口 |②-----|
3
①口口① |①-----|
口①①口 |------|
口口口口 |------|
口口口口 |------|
4
口口口口 |①-----|
①口口① |------|
①口口① |------|
口②②口 |②-----|
5
①口口① |①-----|
口①①口 |------|
②口口② |②-----|
口口口口 |------|
6
口口口口 |①-----|
口①①口 |------|
口①①口 |------|
口②②口 |②-----|
7
①口口① |①-----|
口①①口 |------|
口口口口 |------|
口口口口 |------|
8
口口口口 |①-----|
口口口口 |------|
②口口② |②-----|
①口口① |------|
9
①口口① |①-----|
口①①口 |------|
口口口口 |------|
口口口口 |------|
10
口口口口 |------|
口口口口 |------|
口口口口 |------|
口口口口 |------|
11
①①⑤⑤ |①-----|
①②⑥⑤ |②-③-④-|
口⑦③口 |⑤-----|
口④⑧口 |⑥-⑦-⑧-|
12
①①⑤⑤ |①-----|
①②口⑤ |②-③-④-|
口口③口 |⑤---⑥-|
⑥④口口 |------|
13
①①⑤⑤ |①-----|
①②⑥⑤ |②-③-④-|
口⑦③口 |⑤-----|
口④⑧口 |⑥-⑦-⑧-|
14
①①⑤⑤ |①-----|
①②口⑤ |②-③-④-|
⑥口③口 |⑤---⑥-|
口④口口 |------|
15
①①⑤⑤ |①-----|
①②⑥⑤ |②-③-④-|
口⑦③口 |⑤-----|
口④⑧口 |⑥-⑦-⑧-|
16
①①⑤⑤ |①-----|
①②口⑤ |②-③-④-|
口口③口 |⑤---⑥-|
⑥④口口 |------|
17
①①⑤⑤ |①-----|
①②⑥⑤ |②-③-④-|
口⑦③口 |⑤-----|
口④⑧口 |⑥-⑦-⑧-|
18
①④口④ |①-----|
③口口③ |②-----|
②口②① |③-----|
口④口④ |④-----|
19
①口①口 |①-----|
口③口③ |②-----|
口①③口 |③-----|
②口④口 |④-----|
20
口①①③ |①-----|
①③口口 |②-----|
口①③③ |③-----|
口④口② |④-----|
21
①口①③ |①-----|
口口③① |②-----|
③①③口 |③-----|
②口④口 |④-----|
22
口①①口 |①-----|
①口口口 |②-----|
口口口① |------|
口③口② |③-----|
23
①③口口 |①-----|
口①③① |②-----|
口③①③ |③-----|
②口④口 |④-----|
24
③口口③ |①-----|
①口③① |②-----|
①③①口 |③-----|
口④口② |④-----|
25
口③①口 |①-----|
口①③③ |②-----|
①③口① |③-----|
②口④口 |④-----|
26
口口口口 |①-----|
口①口口 |②-----|
①口①① |------|
口③口② |③-----|
27
①口①口 |①-----|
口③口③ |②-----|
口①③口 |③-----|
②口④口 |④-----|
28
口①①③ |①-----|
①③口口 |②-----|
口①③③ |③-----|
口④口② |④-----|
29
①口①③ |①-----|
口口③① |②-----|
③①③口 |③-----|
②口④口 |④-----|
30
口①①口 |①-----|
①口口口 |②-----|
口口口① |------|
口③口② |③-----|
31
①③口口 |①-----|
口①③① |②-----|
口③①③ |③-----|
②口④口 |④-----|
32
③口口③ |①-----|
①口③① |②-----|
①③①口 |③-----|
口④口② |④-----|
33
口③①口 |①-----|
口①③③ |②-----|
①③口① |③-----|
②口④口 |④-----|
34
②⑥⑤③ |①-----|
④①⑦口 |②-③-④-|
①⑧①① |⑤-⑥-⑦-|
口⑩⑨口 |⑧-⑨-⑩-|
35
口②口口 |①-----|
②③口① |------|
口口③① |②-----|
口口口口 |③-----|
36
口口口口 |①-----|
口口口口 |------|
口口口口 |②-----|
②②①① |------|
37
口口口① |①-----|
口口②口 |------|
③口口口 |②---③-|
口口④口 |--④---|
38
⑤①口⑩ |①-②-③-|
口③⑧② |④-⑤-⑥-|
口⑨④口 |⑦-⑧-⑨-|
⑦口口⑥ |⑩-----|
39
口①②口 |①-----|
①口③② |------|
口③口口 |②-----|
口口口口 |③-----|
40
口口口口 |①-----|
口口口口 |------|
口口口口 |②-----|
①①②② |------|
41
口③②① |①-②-③-|
口⑥⑤④ |④-⑤-⑥-|
口⑨⑧⑦ |⑦-⑧-⑨-|
口⑫⑪⑩ |⑩-⑪-⑫-|
42
①②③口 |①-②-③-|
④⑤⑥口 |④-⑤-⑥-|
⑦⑧⑨口 |⑦-⑧-⑨-|
⑩⑪⑫口 |⑩-⑪-⑫-|
43
①①②② |①-----|
口口口口 |------|
口口口口 |②-----|
口口口口 |------|
44
口口口口 |①-----|
①口口① |------|
口①①口 |------|
口①①口 |------|
45
②③④① |①-----|
⑧⑨⑩口 |②-③-④-|
⑤⑥⑦口 |⑤-⑥-⑦-|
口口口口 |⑧-⑨-⑩-|
46
口⑥⑤④ |①-②-③-|
口⑫⑪⑩ |④-⑤-⑥-|
口⑨⑧⑦ |⑦-⑧-⑨-|
①②③口 |⑩-⑪-⑫-|
47
①⑦口② |①-----|
③口口⑩ |②-③-④-|
⑨口⑥口 |⑤-⑥-⑦-|
⑤口⑧④ |⑧-⑨-⑩-|
48
口口口口 |①-②-③-|
口①④口 |④-----|
口⑤⑤② |⑤-----|
口③口口 |------|
49
①②③口 |①-②-③-|
⑦⑧⑨口 |④-⑤-⑥-|
⑩⑪⑫口 |⑦-⑧-⑨-|
④⑤⑥口 |⑩-⑪-⑫-|
50
口③②① |①-②-③-|
口⑨⑧⑦ |④-⑤-⑥-|
口⑫⑪⑩ |⑦-⑧-⑨-|
口⑥⑤④ |⑩-⑪-⑫-|
51
③口⑥② |①-②-③-|
⑤⑨⑧⑫ |④-⑤-⑥-|
⑦口口⑩ |⑦-⑧-⑨-|
①⑪口④ |⑩-⑪-⑫-|
52
⑤口口④ |①-②-③-|
口口口口 |④-⑤-⑥-|
⑦①⑥口 |⑦-----|
③口②口 |------|
53
口口①口 |①-----|
口④③② |②-③-④-|
口⑩⑨⑧ |⑤-⑥-⑦-|
口⑦⑥⑤ |⑧-⑨-⑩-|
54
口③②① |①-②-③-|
④⑤⑥口 |④-⑤-⑥-|
⑦口口口 |⑦-----|
口口口口 |------|
55
口⑩①⑨ |①-②-③-|
⑥⑫⑪⑤ |④-⑤-⑥-|
⑧②⑦口 |⑦-⑧-⑨-|
④口③口 |⑩-⑪-⑫-|
56
⑥口⑤口 |①-②-③-|
⑨口口⑧ |④-⑤-⑥-|
口⑦⑩③ |⑦-⑧-⑨-|
④②⑦① |⑩-----|
57
③④⑤① |①-----|
口口口口 |②-----|
⑥⑦⑧口 |③-④-⑤-|
口口口② |⑥-⑦-⑧-|
58
口⑨⑧⑦ |①-②-③-|
④⑤⑥口 |④-⑤-⑥-|
口⑫⑪⑩ |⑦-⑧-⑨-|
①②③口 |⑩-⑪-⑫-|
59
④⑩口⑨ |①-②-③-|
⑧口⑦③ |④-⑤-⑥-|
②口口⑪ |⑦-⑧-⑨-|
⑥⑫⑤① |⑩-⑪-⑫-|
60
⑩口口⑪ |①-②-③-|
⑫②⑨⑤ |④-⑤-⑥-|
④⑥①口 |⑦-⑧-⑨-|
⑧口⑦③ |⑩-⑪-⑫-|
61
⑫④口口 |①-②-③-|
口⑧⑪⑦ |④-⑤-⑥-|
⑥口①③ |⑦-⑧-⑨-|
⑩②⑨⑤ |⑩-⑪-⑫-|
62
口口口① |①-----|
口口口口 |------|
口口口口 |------|
口口口口 |------|
63
①口口① |①-----|
②③④口 |------|
口口口口 |------|
口口口口 |②-③-④-|
64
⑦口口⑧ |①-②-③-|
⑨口口⑩ |④-⑤-⑥-|
口③②① |⑦-⑧-⑨-|
④⑤⑥口 |⑩-----|
65
②①①③ |①-----|
④口口⑤ |----②-|
口口口口 |------|
口口口口 |③-④-⑤-|
66
⑦口口口 |①-②-③-|
口①⑧口 |④-⑤-⑥-|
⑨③②④ |⑦-⑧-⑨-|
⑩⑤⑥⑩ |⑩-----|
67
口③②① |①-②-③-|
口⑨⑧⑦ |④-⑤-⑥-|
口⑥⑤④ |⑦-⑧-⑨-|
口⑫⑪⑩ |⑩-⑪-⑫-|
68
①②③口 |①-②-③-|
口⑨⑧⑦ |④-⑤-⑥-|
④⑤⑥口 |⑦-⑧-⑨-|
口口⑩⑩ |⑩-----|
69
④口口① |①-②-③-|
口口口⑦ |④-⑤-⑥-|
⑥口⑤③ |⑦-----|
②⑧⑧口 |⑧-----|
70
口①①口 |①-----|
口口口口 |------|
口②②口 |------|
口口口口 |②-----|
71
⑦⑧⑨口 |①-②-③-|
口⑥⑤④ |④-⑤-⑥-|
口⑫⑪⑩ |⑦-⑧-⑨-|
①②③口 |⑩-⑪-⑫-|
72
⑤口口⑤ |①-②-③-|
口口口口 |④-----|
口口口口 |------|
①②③④ |⑤-----|
73
口②口口 |①-----|
口⑥⑤③ |②---③-|
①口⑦① |--④---|
口④口口 |⑤-⑥-⑦-|
74
③⑨⑧② |①-②-③-|
口口口口 |④-⑤-⑥-|
⑦①口⑥ |⑦-⑧-⑨-|
⑤⑩⑩④ |⑩-----|
75
口口口口 |①-----|
口①①② |------|
口口口口 |------|
口口口口 |②-----|
76
口口③口 |①-----|
口口口口 |②---③-|
①②口口 |------|
口口口口 |------|
77
①⑤⑧口 |①-②-③-|
⑦⑨④口 |④-⑤-⑥-|
口⑪⑩② |⑦-⑧-⑨-|
口③⑫⑥ |⑩-⑪-⑫-|
78
口口⑦① |①-②-③-|
⑥⑫⑧② |④-⑤-⑥-|
⑤⑪⑨③ |⑦-⑧-⑨-|
④⑩口口 |⑩-⑪-⑫-|
79
②口⑨① |①-②-③-|
⑥⑫口⑦ |④-⑤-⑥-|
⑧口口③ |⑦-⑧-⑨-|
④⑩⑪⑤ |⑩-⑪-⑫-|
80
口口口③ |①-②-③-|
⑥口⑤口 |④-⑤-⑥-|
⑧②①⑨ |⑦-⑧-⑨-|
④⑩⑩⑦ |⑩-----|
81
①②③口 |①-②-③-|
口⑥⑤④ |④-⑤-⑥-|
口⑧口⑩ |⑦-⑧-⑨-|
⑦口⑨口 |⑩-----|
82
口③②① |①-②-③-|
④⑤⑥口 |④-⑤-⑥-|
⑩口⑧口 |⑦-⑧-⑨-|
口⑨口⑦ |⑩-----|
83
①②③口 |①-②-③-|
口⑥⑤④ |④-⑤-⑥-|
口⑧口⑩ |⑦-⑧-⑨-|
⑦口⑨口 |⑩-----|
84
⑫③②① |①-②-③-|
④⑤⑥口 |④-⑤-⑥-|
⑩口⑧口 |⑦-⑧-⑨-|
口⑨⑪⑦ |⑩-⑪-⑫-|
85
口④⑦① |①-②-③-|
⑧⑤口② |④-⑤-⑥-|
口⑥⑨③ |⑦-⑧-⑨-|
⑩口口口 |⑩-----|
86
⑩口口口 |①-②-③-|
口⑥⑨③ |④-⑤-⑥-|
⑧⑤口② |⑦-⑧-⑨-|
口④⑦① |⑩-----|
87
口⑤口④ |①-②-③-|
③口⑩⑥ |④-⑤-⑥-|
⑪⑦口② |⑦-⑧-⑨-|
①⑨⑫⑧ |⑩-⑪-⑫-|
88
③⑨②⑧ |①-②-③-|
⑦①口⑩ |④-⑤-⑥-|
口⑪④⑥ |⑦-⑧-⑨-|
⑤口口⑫ |⑩-⑪-⑫-|
89
口口⑥口 |①-②-③-|
⑦③②口 |④-⑤-⑥-|
⑤口④⑩ |⑦-⑧-⑨-|
⑨①⑧口 |⑩-----|
90
①口口① |①-----|
口口口口 |------|
口口口口 |------|
口口口口 |------|
91
①口口② |------|
口口口口 |------|
口口口口 |------|
口口口口 |①---②-|
92
口口口口 |①-----|
口①①口 |------|
口①口① |------|
口①①口 |------|

不確定度: 0

最終更新:2014年04月17日 14:59