カラルの月
猫叉劇団

EXTREME

Level: 9
BPM: 135
Notes: 760

1
口口口口 |----|
口口口口 |----|
口口口口 |----|
口口口口 |----|
2
口口①口 |①---|
口②口① |----|
口口②口 |②---|
口口口口 |----|
3
口口口口 |①---|
口口口口 |----|
①口口口 |----|
口①口口 |----|
4
口①口② |①-②-|
①口②口 |③---|
口②口③ |----|
②口③口 |----|
5
②口①口 |①-②-|
口②口① |③---|
③口②口
口③口②

口口口口
口口口口
口⑥⑤④ |----|
口口口口 |④⑤⑥-|
6
口口口① |①---|
口③①② |----|
口口口口 |②-③-|
口⑤口④ |④-⑤-|
7
⑥口⑤⑦ |①-②-|
口④⑦③ |③-④-|
②口①口 |⑤-⑥-|
口口口口 |⑦---|
8
口①口口 |①---|
①口口② |②-③-|
口口③口
口口口口

⑤⑥口口
口口口口
口口口口 |④---|
⑤⑥口④ |⑤-⑥-|
9
⑧⑧②① |①-②-|
④③⑦⑩ |③-④-|
③④⑨⑥ |⑤-⑥⑦|
⑤⑤①② |⑧-⑨⑩|
10
④⑤⑥③ |①---|
①①⑦⑧ |②-③-|
②口口③ |④⑤⑥---|
口②⑧⑦ |⑦-⑧-|
11
⑩⑩④④ |①-②③|
⑥③⑨⑫ |④-⑤⑥|
②⑤⑪⑧ |⑦-⑧⑨|
①①⑦⑦ |⑩-⑪⑫|
12
口口⑥⑤ |①---|
②①口口 |②-③-|
口③口口 |④---|
④口⑥⑤ |⑤-⑥-|
13
①②口口 |①-②-|
⑥⑤④③ |③④⑤⑥--|
口口口口
②①口口

⑨口口⑩
口口⑪口
口⑧口口 |⑦-⑧⑨|
口口⑦⑦ |⑩-⑪-|
14
口口③口 |①-②-|
口口口④ |③-④-|
口口口①
②口口口

口口口口
口⑧⑧口
⑦口⑤⑦ |⑤-⑥-|
口⑥口口 |⑦-⑧-|
15
①⑥⑥① |①-②-|
口口口② |③-④-|
口④③口 |⑤---|
⑤口口⑤ |⑥---|
16
⑧⑨口④ |①②③---|
①②③口 |④-⑤-|
口⑤⑤⑦ |⑥-⑦-|
⑧⑨口⑥ |⑧-⑨-|
17
口口②① |①-②-|
④③口口 |③-④-|
③④口口
口口①②

⑦⑦⑧口
口口⑨口
口口⑩⑥ |⑤-⑥-|
⑤⑤口口 |⑦--⑧⑨⑩|
18
口口口口 |①-②-|
③口口② |③-④-|
口③口④
口口①口

⑤⑥⑦⑧
口口⑨⑩
口口口口 |⑤⑥⑦⑧--|
口口⑩⑨ |⑨-⑩-|
19
口口④④ |①-②③|
⑥③口口 |④-⑤⑥|
②⑤口口
①①口口

⑩口口口
口⑪⑨口
⑫口口⑧ |⑦-⑧⑨|
口⑬⑦⑦ |⑩⑪⑫⑬|
20
口③②① |①②③---|
④口口口 |④-⑤-|
口⑤口口
口口口口

口口⑨⑧
口口口口
⑦口口口 |⑥-⑦-|
⑥口⑨⑧ |⑧-⑨-|
21
①②口口 |①-②-|
⑥⑤④③ |③④⑤⑥--|
口口口口
②①口口

⑨口口⑩
口口⑪口
口⑧口口 |⑦-⑧⑨|
口口⑦⑦ |⑩-⑪-|
22
口口③口 |①-②-|
口口口④ |③-④-|
口口口①
②口口口

口口口口
口⑧⑧口
口⑥⑤口 |⑤-⑥-|
⑦口口⑦ |⑦-⑧-|
23
⑦①①⑦ |①-②-|
②⑥⑥② |③-④-|
③⑤⑤③ |⑤-⑥-|
口④④口 |⑦---|
24
口④口口 |①---②-|
①⑤口① |--③---|
②⑥口① |④---⑤-|
③口④④ |--⑥---|
25
①口口⑦ |①---②-|
②⑤⑤③ |③-④---|
④⑥⑦口 |⑤---⑥-|
口⑧③⑤ |⑦-⑧---|
26
口④口口 |①---②-|
①⑤口① |--③---|
②⑥口① |④---⑤-|
③口④④ |--⑥---|
27
①口口⑦ |①---②-|
②⑤⑦口 |③-④---|
④⑥⑤③ |⑤---⑥-|
口⑧③口 |⑦-⑧---|
28
口口④口 |①---②-|
①口⑤① |--③---|
①口⑥② |④---⑤-|
④④口③ |--⑥---|
29
⑦口口① |①---②-|
③⑤⑤② |③-④---|
口⑦⑥④ |⑤---⑥-|
⑤③⑧口 |⑦-⑧---|
30
口口④口 |①---②-|
①口⑤① |--③---|
①口⑥② |④---⑤-|
④④口③ |--⑥---|
31
口⑧口① |①-②-③-|
②⑩⑦③ |④-⑤-⑥-|
④⑫⑨⑤ |⑦-⑧-⑨-|
⑥口⑪口 |⑩-⑪-⑫-|
32
①口①口 |①---②-|
②口③① |③-④---|
④口口口
口口口口

口⑥口口
口⑧口⑦
口口口⑤ |⑤---⑥-|
⑤口⑤口 |⑦-⑧---|
33
④口⑦口 |①---②-|
⑤口⑤⑦ |③-④---|
⑥①③⑤ |⑤---⑥-|
⑧②口③ |⑦-⑧---|
34
⑥①⑦① |①---②-|
⑧②⑤口 |③-④---|
口④①③ |⑤---⑥-|
口⑤口⑤ |⑦-⑧---|
35
口④⑦口 |①---②-|
口⑤⑤③ |③-④---|
①⑥口⑦ |⑤---⑥-|
②⑧③⑤ |⑦-⑧---|
36
口①口① |①---②-|
①③口② |③-④---|
口口口④
口口口口

口口⑥口
⑦口⑧口
⑤口口口 |⑤---⑥-|
口⑤口⑤ |⑦-⑧---|
37
⑦口口④ |①---②-|
⑤⑦口⑤ |③-④---|
③⑤①⑥ |⑤---⑥-|
口③②⑧ |⑦-⑧---|
38
口①①口 |①---②-|
③口②口 |③-④---|
①口④口
口口口口

口口口⑥
口⑤口⑧
⑦口口口 |⑤---⑥-|
⑤口⑤口 |⑦-⑧---|
39
口②口口 |①-②-|
①口口口 |③--④⑤⑥|
口口口③
④⑤⑥口

⑫⑫⑪口
⑫⑩口口
⑧口⑨口 |⑦⑧⑨⑩|
口口口⑦ |⑪-⑫-|
40
口口口口 |----|
口口口口 |----|
口②口口 |----|
口①口口 |--①②|
41
②⑤④① |①-②③|
③⑥①④ |④-⑤⑥|
⑧⑨⑩⑪ |⑦--⑧⑨⑩|
⑫口口⑦ |⑪-⑫-|
42
②③口① |①-②③|
⑦⑥⑤④ |④⑤⑥⑦--|
⑪口⑬⑩ |⑧-⑨⑩|
⑨口⑫⑧ |⑪-⑫⑬|
43
①④⑤② |①-②③|
④①⑥③ |④-⑤⑥|
⑦⑩⑪口 |⑦-⑧⑨|
⑩⑦⑨⑧ |⑩-⑪-|
44
④①①④ |①-②③|
⑥③②⑥ |④-⑤-|
⑤⑦⑩⑤ |⑥-⑦-|
⑧口⑨口 |⑧-⑨⑩|
45
①④⑤② |①-②③|
④①⑥③ |④-⑤⑥|
⑪⑩⑨⑧ |⑦--⑧⑨⑩|
⑦口口⑫ |⑪-⑫-|
46
①⑧③② |①-②③|
④⑤⑥⑦ |④⑤⑥⑦--|
⑩⑬口⑪ |⑧-⑨⑩|
口⑫口⑨ |⑪-⑫⑬|
47
②⑤④① |①-②③|
③⑦⑥④ |④-⑤-|
口口口口 |⑥-⑦-|
⑪⑩⑨⑧ |⑧⑨⑩⑪--|
48
③口①口 |①-②-|
④③②① |③-④-|
口口口口
口口口口

⑧⑨口口
口口口口
口口⑤口 |⑤-⑥-|
⑦口⑥⑤ |⑦-⑧⑨|
49
⑧口⑤口 |①②③④|
⑨②①⑤ |⑤-⑥-|
⑩④③口 |⑦--⑧⑨⑩|
⑪⑥⑫⑦ |⑪-⑫-|
50
⑩口口口 |①②③④|
⑨①②⑪ |⑤-⑥-|
⑧③④⑥ |⑦-⑧-|
⑦⑤口⑦ |⑨-⑩⑪|
51
口⑤口口 |①②③④|
口③④口 |⑤-⑥-|
⑤①②⑥
口口口口

⑦口口⑧
⑨口口⑩
口⑪⑫口 |⑦⑧⑨⑩|
⑪口口⑫ |⑪-⑫-|
52
口①口口 |①-②③|
⑤④④⑤ |④-⑤-|
①口口口
口③②口

⑥口口⑥
口口口口
口口⑦口 |⑥-⑦-|
⑧⑨⑩⑪ |⑧⑨⑩⑪|
53
⑧①③② |①-②③|
①⑧口⑬ |④⑤⑥⑦--|
④⑤⑥⑦ |⑧--⑨⑩⑪|
⑫⑪⑩⑨ |⑫-⑬-|
54
⑦⑦口⑪ |①-②③|
②⑤⑥⑫ |④⑤⑥-|
①①④③ |⑦-⑧⑨|
口⑩⑨⑧ |⑩-⑪⑫|
55
④口口口 |①-②③|
口口口口 |④-⑤-|
②口③①
口口口⑤

口口⑥⑥
口⑦⑧口
⑨⑩⑪⑫ |⑥-⑦⑧|
口口口口 |⑨⑩⑪⑫--|
56
口口③② |①-②-|
⑤④口口 |③-④-|
⑤⑥口口 |⑤-⑥-|
①①⑦⑧ |⑦-⑧-|
57
口口⑤① |①-②-|
⑥②①⑤ |③-④-|
⑧④③⑦ |⑤-⑥-|
口口口口 |⑦-⑧-|
58
口口口① |①-②-|
⑩②①⑨ |③--④⑤⑥|
⑧口③口 |⑦-⑧-|
④⑤⑥⑦ |⑨-⑩-|
59
口口⑤① |①-②-|
⑥②①⑤ |③-④-|
⑧④③⑦ |⑤-⑥-|
口口⑦口 |⑦-⑧-|
60
⑩⑪⑫① |①-②-|
口②①⑨ |③--④⑤⑥|
⑧口③口 |⑦-⑧-|
④⑤⑥⑦ |⑨--⑩⑪⑫|
61
口口⑦① |①-②-|
⑥②口⑤ |③-④-|
⑧④③⑦ |⑤-⑥-|
口口⑤③ |⑦-⑧-|
62
口口口① |①-②-|
口②①口 |③-④-|
口④③口
口口口口

口⑧⑤口
⑥⑨口⑤
口⑩口⑦ |⑤-⑥-|
口口口口 |⑦--⑧⑨⑩|
63
③⑧口② |①-②-|
口⑨④⑤ |③-④-|
③⑩⑥口 |⑤-⑥-|
⑦①⑦⑤ |⑦--⑧⑨⑩|
64
口口口口 |①-②-|
③口②口 |③-④-|
口口口口
口①④口

口口口口
口口⑧口
口⑦口⑥ |⑤-⑥-|
⑤口口口 |⑦-⑧-|
65
①②③④ |①②③④--|
口⑤口⑥ |⑤-⑥-|
⑦口⑧口 |⑦-⑧-|
口⑨口⑩ |⑨-⑩-|
66
①①口口 |①---|
①①口口 |----|
口口口口
口口口口

口④口②
口口⑤口
口口口⑥ |--②-③-|
③口口口 |④-⑤-⑥-|
67
⑧口④口 |①-②-③-|
①⑨口⑤ |④-⑤-⑥-|
⑥②⑩口 |⑦-⑧-⑨-|
口⑦③⑪ |⑩-⑪---|

不確定度: 0

最終更新:2014年07月20日 00:44