防人恋歌
Ax feat.夏川陽子

EXTREME

Level: 8
BPM: 170
Notes: 631

1
口口口口 |----|
口口口口 |----|
口口口口 |----|
口口口口 |----|
2
口口口口 |----|
口口口口 |----|
口口口口 |----|
口口口口
3
口口口口 |①---|
口口口口 |----|
口②②口 |②---|
③口口① |--③-|
4
①口口口 |--①-|
口③④口 |②-③-|
口口口口 |④-⑤-|
⑤口口②
5
口口口① |①---|
口口口口 |----|
口口口口 |----|
口口口口 |----|
6
口口口口 |----|
口口口口 |----|
口口口口 |----|
口口口口
7
口口口口 |①---|
口②②口 |----|
口口口口 |②---|
①口口③ |--③-|
8
口口口口 |--①-|
⑤口口② |②-③-|
①口口④ |④-⑤-|
③口口口
9
②②口③ |①---|
口口①③ |----|
口口①口 |②---|
口口口口 |--③-|
10
口口口口 |----|
口口口口 |----|
口口口口 |----|
口口口口
11
口口口口 |①---|
口口口口 |----|
①口口口
①口口口

口口口②
口口③②
③口口口 |②---|
口③口口 |--③-|
12
口①口口 |--①-|
口③口② |②-③-|
口口口④ |④-⑤-|
⑤口口口
13
口②①① |①---|
②口口口 |②---|
口口②口
口口口口

口口口⑥
口③口⑥
口⑤口④ |③-④-|
口口口口 |⑤-⑥-|
14
口口③口 |--①-|
口②口⑤ |②-③-|
④口口口 |④-⑤-|
口口口①
15
口口口口 |①---|
口口口口 |----|
口口口口
①①口口

口口②②
口口③口
③口口口 |②---|
口③口口 |--③-|
16
⑤口口口 |--①-|
①口口口 |②-③-|
口口②④ |④-⑤-|
③口口口
17
口②④① |①---|
②③口① |②---|
口口②⑥ |③-④-|
口⑤口⑥ |⑤-⑥-|
18
口口口① |--①-|
口④③口 |②-③-|
口②⑤口 |④-⑤-|
口口口口
19
口口口口 |①---|
口口口口 |----|
口口口口 |----|
口①①口 |----|
20
口口口口 |----|
口口口口 |----|
口口口口 |----|
口口口口
21
口②②口 |①---|
口口④④ |②---|
①口口① |③---|
口③③口 |--④-|
22
口口口① |--①-|
②⑥口口 |②-③-|
口口③⑤ |④-⑤-|
口④⑦口 |⑥-⑦-|
23
口②②口 |①---|
①口口口 |②---|
①口口口
口口口口

口口口口
⑤⑤口口
口③③口 |③---|
口口④口 |④-⑤-|
24
口口③口 |--①-|
口口口口 |②-③-|
口口口②
口口口①

口口口口
口口⑥④
口口⑤口 |④-⑤-|
口口口⑦ |⑥-⑦-|
25
②②口口 |①---|
④口口③ |②---|
④口口③ |③---|
①①口口 |--④-|
26
口口⑤口 |--①-|
口①口⑦ |②-③-|
口⑥②④ |④-⑤-|
③口口口 |⑥-⑦-|
27
①口口口 |①---|
①口口口 |②---|
②口口口
口②口口

④口口③
④口③⑤
口口口⑤ |③---|
口口口口 |④-⑤-|
28
口④口口 |①-②-|
口①口口 |③-④-|
③口口口
②口口口

口口口口
⑤⑦口口
口⑥口口 |⑤-⑥-|
⑧口口口 |⑦-⑧-|
29
口口①① |①---|
口口②口 |②-③-|
①口口口
口③口口

口口口口
口④口⑤
⑥口口口 |④---|
口口④④ |⑤-⑥-|
30
①①口口 |①---|
②口③口 |②---|
口口①② |③---|
③③④口 |--④-|
31
口口口④ |①-②-|
口③口口 |③-④-|
口①②口
口口口口

⑤口口口
⑦口⑥口
口口⑧口 |⑤-⑥-|
口口口口 |⑦-⑧-|
32
③①②④ |①---|
口口口口 |②---|
口口口口 |③---|
②③④① |④---|
33
口口①⑥ |①---|
口①②① |②-③-|
口④口④ |④---|
③⑤④口 |⑤-⑥-|
34
②①口口 |①---|
①口①口 |②---|
③口③口 |③---|
④③口② |--④-|
35
口②①口 |①---|
②口口① |----|
口口口③ |②---|
口口③口 |③---|
36
①口②口 |①---|
口口口② |----|
②口口口 |②---|
口②口① |----|
37
⑥⑥③③ |①-②-|
②口口⑤ |③---|
④②⑤① |④-⑤-|
口④①口 |⑥---|
38
⑥口口① |①-②-|
⑤口③口 |③-④-|
口②口⑥ |⑤---|
④口口⑤ |⑥---|
39
口口口口 |①-②-|
口③口口 |③---|
口①②口
口③口口

口⑤④口
口口⑥口
口⑦口口 |④-⑤-|
口口口口 |⑥-⑦-|
40
②口口③ |①---|
②口④① |②---|
⑤口口① |③-④-|
口口口口 |⑤---|
41
⑥⑥③③ |①-②-|
②口口⑤ |③---|
④②⑤① |④-⑤-|
口④①口 |⑥---|
42
口口口① |①-②-|
口口③口 |③-④-|
口②口口
④口口口

⑥口口⑦
⑤口口口
口口口⑥ |⑤---|
口口口⑤ |⑥-⑦-|
43
口③④⑤ |①---|
②口口② |②---|
①口④⑤ |③---|
口①③口 |④-⑤-|
44
②口③④ |--①-|
①口④① |--②-|
口④口口 |③---|
④③口② |④---|
45
口④④口 |①---|
①口口③ |②---|
②口③① |③---|
⑤②口⑤ |④-⑤-|
46
口④④① |--①-|
①口口② |②-③-|
②口口口 |④---|
口③③口 |----|
47
口口口口 |①---|
口口口口 |----|
口口口①
口口口①

②口口口
②③口口
口口口③ |②---|
口口③口 |--③-|
48
口口①口 |--①-|
②口③口 |②-③-|
④口口口 |④-⑤-|
口口口⑤
49
①①②口 |①---|
口口口② |②---|
口②口口
口口口口

⑥口口口
⑥口③口
④口⑤口 |③-④-|
口口口口 |⑤-⑥-|
50
口③口口 |--①-|
口口②口 |②-③-|
口口口④ |④-⑤-|
①⑤口口
51
口口口口 |①---|
口口口口 |----|
口口口口
口口①①

②②口口
口③口口
口口口③ |②---|
口口③口 |--③-|
52
口口口⑤ |--①-|
口口口① |②-③-|
④②口口 |④-⑤-|
口口口③
53
①④②口 |①---|
①口③② |②---|
⑥②口口 |③-④-|
⑥口⑤口 |⑤-⑥-|
54
①口口口 |--①-|
⑤口②口 |②-③-|
口口口④ |④-⑤-|
口③口口
55
口①①③ |①---|
口口口口 |----|
口口口② |②---|
口口口口 |③---|
56
口口口⑥ |①-②-|
口③②① |③-④-|
④口口⑤ |⑤---|
口口口口 |⑥---|
57
口口口口 |①---|
口②④③ |②---|
⑥⑤口口 |③-④-|
口①口口 |⑤-⑥-|
58
口口口口 |①---|
口口口口 |----|
口口口① |----|
口口口① |----|
59
口④口口 |----|
②口口口 |----|
口口口③ |①-②-|
口口①口 |③-④-|
60
口口①① |①---|
口口②口 |②-③-|
①口口口
口③口口

口口口口
口④口⑤
⑥口口口 |④---|
口口④④ |⑤-⑥-|
61
①①口口 |①---|
②口③口 |②---|
口口①② |③---|
③③④口 |--④-|
62
口口口④ |①-②-|
口③口口 |③-④-|
口①②口
口口口口

⑤口口口
⑦口⑥口
口口⑧口 |⑤-⑥-|
口口口口 |⑦-⑧-|
63
③①②④ |①---|
口口口口 |②---|
口口口口 |③---|
②③④① |④---|
64
口口①口 |①---|
口①②① |②-③-|
口口口口
③口口口

口口⑥口
口口口⑥
口④口④ |④---|
口⑤④口 |⑤-⑥-|
65
口③口口 |①-②-|
③①④口 |③-④-|
①口口④ |⑤---|
⑥⑤口② |--⑥-|
66
口②①口 |①---|
②口口① |----|
口口口③ |②---|
口口③口 |③---|
67
①口②口 |①---|
口口口② |----|
②口口口 |②---|
口②口① |----|
68
⑥⑥③③ |①-②-|
②口口⑤ |③---|
④②⑤① |④-⑤-|
口④①口 |⑥---|
69
⑥口口① |①-②-|
⑤口③口 |③-④-|
口②口⑥ |⑤---|
④口口⑤ |⑥---|
70
口口口口 |①-②-|
口③口口 |③---|
口①②口
口③口口

口⑤④口
口口⑥口
口⑦口口 |④-⑤-|
口口口口 |⑥-⑦-|
71
②口③③ |①---|
②⑤④① |②---|
口口口① |③-④-|
③③口口 |⑤---|
72
⑥⑥③③ |①-②-|
②口口⑤ |③---|
④②⑤① |④-⑤-|
口④①口 |⑥---|
73
口口口① |①-②-|
口口③口 |③-④-|
口②口口
④口口口

⑥口口⑦
⑤口口口
口口口⑥ |⑤---|
口口口⑤ |⑥-⑦-|
74
口③④⑤ |①---|
②口口② |②---|
①口④⑤ |③---|
口①③口 |④-⑤-|
75
④口口⑤ |--①-|
口②⑤① |②-③-|
①⑤④口 |④---|
⑤③②③ |⑤---|
76
口②口口 |①---|
②口口① |②---|
①口口②
口口②口

口口④口
口③口④
④口③口 |③---|
口④口口 |④---|
77
①⑥口⑤ |①-②-|
口口②口 |③-④-|
口③口口 |⑤---|
⑤口⑥④ |⑥---|
78
②③口口 |①---|
②口④① |②---|
①口口② |③-④-|
⑤口⑥② |⑤-⑥-|
79
③口②口 |①---|
口①口② |②---|
①口④口 |③-④-|
口口口⑤ |⑤---|
80
⑥口口③ |①-②-|
②⑥③⑤ |③---|
④③⑥① |④-⑤-|
③口口⑥ |⑥---|
81
口③②② |①-②-|
③口口口 |③-④-|
口口口④
①①④口

⑤口口口
口口口⑥
⑤口口口 |⑤---|
⑦口口⑥ |⑥-⑦-|
82
⑤④②口 |①---|
②口①口 |②---|
⑤④①③ |③---|
口③口口 |④-⑤-|
83
④③口② |--①-|
①④口① |--②-|
口口④口 |③---|
②口③④ |④---|
84
口口②口 |①---|
①口口口 |②---|
②口口①
口口口口

④口口④
⑤③口⑤
口口口口 |③---|
口口口③ |④-⑤-|
85
④④④④ |--①-|
口②②口 |②-③-|
③口口③ |④---|
口①①口 |----|

不確定度: 0

最終更新:2014年03月16日 15:30