黒髪乱れし修羅となりて
村正クオリア

EXTREME

Level: 9
BPM: 150
Notes: 927

1
口口口口 |----|
口口口口 |----|
口口口口 |----|
口口口口 |----|
2
③⑦⑩⑥ |①②③-|
⑪口口口 |④⑤⑥-|
口⑤②⑧ |--⑦⑧|
①⑨⑫④ |⑨⑩⑪⑫|
3
③口口⑥ |①②③-|
口⑤②口 |④⑤⑥-|
口口口口
①口口④

⑪口⑧口
口口口⑩
⑨口口⑫ |--⑦⑧|
口⑦口口 |⑨⑩⑪⑫|
4
⑨③⑥⑫ |①②③-|
⑦口口⑩ |④⑤⑥-|
口⑪⑧口 |--⑦⑧|
①⑤②④ |⑨⑩⑪⑫|
5
口③⑥口 |①②③-|
口⑤②口 |④⑤⑥-|
①口口④
口口口口

⑪口口⑫
口口⑩⑧
口⑦口口 |--⑦⑧|
⑨口口口 |⑨⑩⑪⑫|
6
⑨③⑥⑫ |①②③-|
③口⑧⑥ |④⑤⑥-|
⑦⑤②口 |--⑦⑧|
⑪①④⑩ |⑨⑩⑪⑫|
7
口⑤②口 |①②③-|
①③⑥④ |④⑤⑥-|
口口口口
口③⑥口

⑨口口⑫
口口口口
⑦口⑧⑩ |--⑦⑧|
口⑪口口 |⑨⑩⑪⑫|
8
⑪③⑥⑧ |①②③-|
③⑤②⑥ |④⑤⑥-|
⑨口口⑫ |--⑦⑧|
①⑦⑩④ |⑨⑩⑪⑫|
9
口③⑥口 |①②③-|
口⑤②口 |④⑤⑥-|
口③⑥口
①口口④

口口口⑩
口口口⑧
⑦口口⑫ |--⑦⑧|
⑪⑨口口 |⑨⑩⑪⑫|
10
②①口口 |①---|
①口口口 |--②-|
②口口口
口口口口

口口⑤口
⑤③④口
口口口口 |③-④-|
口③④口 |--⑤-|
11
口口口② |①---|
口②④口 |--②-|
口①口⑤ |--③-|
口③口① |④-⑤-|
12
口口②口 |①-②-|
口口口口 |③---|
③口口口 |----|
③口①口 |----|
13
口口口口 |----|
口口口口 |----|
口口口口 |----|
口口口口 |----|
14
口④④口 |----|
①口口① |--①-|
②口口② |②-③-|
③口口③ |--④-|
15
口口口② |①---|
口口口口 |--②-|
口口口口
②①①口

口口口口
口口口口
口口口口 |--③-|
口⑤④③ |④-⑤-|
16
口②口③ |①-②-|
口口口③ |③---|
①口口口 |----|
口口口口 |----|
17
⑦口口口 |①②③-|
口⑥口③ |④⑤⑥⑦|
口口⑤③
①②口④

口口⑧⑩
⑮口⑪口
⑨⑫口口 |⑧⑨⑩⑪|
⑬口⑭口 |⑫⑬⑭⑮|
18
⑥⑫⑤⑬ |①-②③|
⑭④⑪⑦ |④⑤⑥⑦|
⑧⑩③① |⑧-⑨⑩|
⑧②⑨① |⑪⑫⑬⑭|
19
⑥口⑤口 |①-②③|
口④口⑦ |④⑤⑥⑦|
口口③①
口②口①

口口口口
口口口口
口⑧口⑨ |⑧---|
⑧口⑨口 |⑨---|
20
口②口① |①-②③|
口口①③ |④⑤⑥⑦|
⑥④口口
口口⑦⑤

⑧⑫⑨口
⑩⑧口口
口口⑪⑬ |⑧-⑨⑩|
口⑭口口 |⑪⑫⑬⑭|
21
④口⑦① |①-②③|
口口③① |④⑤⑥⑦|
口⑥口口
②口⑤口

口⑫口⑪
⑧⑭口⑮
⑩口口⑬ |⑧⑨⑩⑪|
口口口⑨ |⑫⑬⑭⑮|
22
⑦⑨②⑭ |①-②③|
③⑪④⑩ |④⑤⑥⑦|
⑤⑬⑥⑫ |⑧-⑨⑩|
①①⑧⑧ |⑪⑫⑬⑭|
23
⑦⑨②口 |①-②③|
③口④⑧ |④⑤⑥⑦|
⑤⑨⑥口 |⑧---|
①①口⑧ |⑨---|
24
⑧⑧①① |①-②③|
②⑭⑦⑨ |④⑤⑥⑦|
④⑩③⑪ |⑧-⑨⑩|
⑥⑫⑤⑬ |⑪⑫⑬⑭|
25
口④①⑦ |①②③④|
⑧口口⑨ |⑤⑥⑦⑧|
②口⑤⑨ |⑨---|
⑥口③口 |----|
26
①①口口 |①-②③|
⑦③②⑥ |④⑤⑥⑦|
口⑤④口
口口①①

口口⑧⑧
口口口口
⑨口口⑩ |⑧-⑨⑩|
⑪⑬⑭⑫ |⑪⑫⑬⑭|
27
①①口口 |①-②③|
⑦⑤⑥④ |④⑤⑥⑦|
口③②口
口口口口

口⑭⑬⑫
口口口口
口口口⑮ |⑧⑨⑩⑪|
⑪⑨⑩⑧ |⑫⑬⑭⑮|
28
①口口口 |①-②③|
⑦③②⑥ |④⑤⑥⑦|
①⑤④口
口口口口

口口口⑨
口⑪⑪口
口口口口 |⑧-⑨-|
⑩口⑧⑧ |⑩-⑪-|
29
①口口④ |①--②|
②⑤⑤③ |--③-|
③口口② |-④--|
⑥①④⑥ |⑤-⑥-|
30
口⑥①口 |①-②③|
②口口⑤ |④⑤⑥⑦|
口口①③
口④⑦口

⑫口口口
口⑭⑨口
⑧⑧⑪口 |⑧-⑨⑩|
⑩口口⑬ |⑪⑫⑬⑭|
31
口⑥①① |①-②③|
②口口⑤ |④⑤⑥⑦|
④口口⑦
口口③口

⑩口⑬口
⑭口⑨口
口口⑪口 |⑧⑨⑩⑪|
⑫⑧口⑮ |⑫⑬⑭⑮|
32
口⑤口② |①-②③|
口①口口 |④⑤⑥⑦|
③①口⑥
⑦口④口

⑩口⑧口
口口口口
⑩⑨⑧口 |⑧--⑨|
口⑨口口 |--⑩-|
33
口④口口 |①-②③|
④①①口 |④-⑤⑥|
口⑥③口
②口口⑤

⑧口⑦⑪
口⑫⑨⑦
⑩口口口 |⑦-⑧⑨|
口⑩口口 |⑩-⑪⑫|
34
口②③口 |①-②③|
④口口⑤ |④⑤⑥⑦|
口口口①
⑥口①⑦

⑨口口⑩
口口口口
口⑧口口 |⑧-⑨-|
口⑨⑩口 |⑩---|
35
口④口口 |①-②③|
④①①口 |④-⑤⑥|
口⑥③口
②口口⑤

⑧口⑦⑪
口⑫⑨⑦
⑩口口口 |⑦-⑧⑨|
口⑩口口 |⑩-⑪⑫|
36
口②③口 |①-②③|
④口口⑤ |④⑤⑥⑦|
口口口①
⑥口①⑦

⑨口口⑩
口口口口
口⑧口口 |⑧-⑨-|
口⑨⑩口 |⑩---|
37
口⑤②口 |①-②③|
口①①④ |④-⑤⑥|
口口④口
③口口⑥

⑨口口⑫
⑦口⑩口
口⑦口⑩ |⑦-⑧⑨|
口⑪⑧口 |⑩-⑪⑫|
38
⑨③②⑩ |①-②③|
⑤①口④ |④⑤⑥⑦|
①口⑧口 |⑧-⑨-|
⑦⑨⑩⑥ |⑩---|
39
口⑤②口 |①-②③|
口①①④ |④-⑤⑥|
口口④口
③口口⑥

⑨口口⑫
⑦口⑩口
口⑦口⑩ |⑦-⑧⑨|
口⑪⑧口 |⑩-⑪⑫|
40
⑨③②⑩ |①-②③|
⑤①口④ |④⑤⑥⑦|
①口⑧口 |⑧-⑨-|
⑦⑨⑩⑥ |⑩---|
41
口⑥②口 |①---|
口①①口 |----|
①⑨⑤① |②③④⑤|
③④⑧⑦ |⑥⑦⑧⑨|
42
口口④④ |①-②-|
口口②① |③-④-|
③口口①
口口口口

口口口口
⑤口⑧⑧
口⑦⑥口 |⑤-⑥-|
⑤口⑥口 |⑦-⑧-|
43
口②口③ |①-②-|
④①口口 |③-④-|
①口口口
④口口口

口⑧口口
口⑧⑦⑦
口⑥口⑤ |⑤-⑥-|
口⑥口口 |⑦-⑧-|
44
口口③③ |①-②-|
②口口口 |③-④-|
②口④口
口口①①

⑤口口口
口⑦口口
口口口⑥ |⑤-⑥-|
口口口⑧ |⑦-⑧-|
45
口口口⑦ |①②③-|
④口口③ |④⑤⑥⑦|
口⑥口口
①②⑤口

⑩口⑬口
口⑧⑮口
口口⑪⑨ |⑧⑨⑩⑪|
⑫⑭口口 |⑫⑬⑭⑮|
46
④④口口 |①-②-|
①口口口 |③-④-|
①②口口
口口口③

口口口⑤
口⑧⑦口
⑧口口⑤ |⑤-⑥-|
⑥⑥口口 |⑦-⑧-|
47
口③口④ |①-②-|
口口口④ |③-④-|
口口②口
口口①①

口口⑤口
⑧⑧口口
⑥口口⑦ |⑤-⑥-|
口⑥口⑦ |⑦-⑧-|
48
②②口④ |①-②-|
口口①③ |③-④-|
口口③口
口口①口

口口⑥口
⑦口⑧口
⑤口口口 |⑤-⑥-|
口口口口 |⑦-⑧-|
49
⑦口口口 |①②③-|
口⑥口③ |④⑤⑥⑦|
口口⑤③
①②口④

口口⑧⑩
⑮口⑪口
⑨⑫口口 |⑧⑨⑩⑪|
⑬口⑭口 |⑫⑬⑭⑮|
50
⑥⑫⑤⑬ |①-②③|
⑭④⑪⑦ |④⑤⑥⑦|
⑧⑩③① |⑧-⑨⑩|
⑧②⑨① |⑪⑫⑬⑭|
51
⑥口⑤口 |①-②③|
口④口⑦ |④⑤⑥⑦|
口口③①
口②口①

口口口口
口口口口
口⑧口⑨ |⑧---|
⑧口⑨口 |⑨---|
52
④口①⑦ |①-②③|
口口⑤③ |④⑤⑥⑦|
⑥口①口
口②口口

口⑧口口
⑩⑫口口
口⑧口⑪ |⑧-⑨⑩|
口⑭⑬⑨ |⑪⑫⑬⑭|
53
②口①口 |①-②③|
口口⑤③ |④⑤⑥⑦|
口⑥①口
④口口⑦

口口⑪⑨
⑫⑩口⑮
⑧口口⑬ |⑧⑨⑩⑪|
口⑭口口 |⑫⑬⑭⑮|
54
①①⑧⑧ |①-②③|
⑦⑥⑬⑭ |④⑤⑥⑦|
⑤⑪④⑫ |⑧-⑨⑩|
③⑨②⑩ |⑪⑫⑬⑭|
55
①①口口 |①-②③|
⑦⑥口口 |④⑤⑥⑦|
⑤口④口
③口②口

⑨⑨⑧⑧
口口口口
口口口口 |⑧---|
口口口口 |⑨---|
56
⑬⑭⑦⑥ |①-②③|
⑧⑤⑫① |④⑤⑥⑦|
⑧⑪④① |⑧-⑨⑩|
②③⑩⑨ |⑪⑫⑬⑭|
57
口口口⑤ |①-②③|
⑥②口① |④⑤⑥⑦|
口口③①
④口⑦口

口口口口
口口口口
⑧⑧口⑨ |⑧---|
口口口⑨ |⑨---|
58
④③②① |①---|
口口口口 |②---|
口口口口 |③---|
①②③④ |④---|
59
⑤④③② |①-②-|
口口①口 |--③-|
口①口口 |--④-|
②③④⑤ |--⑤-|
60
口口口口 |--①②|
③④⑤⑥ |③④⑤⑥|
口口②①
口口口口

⑬⑬⑧⑩
口口口口
口⑦口⑫ |⑦⑧⑨⑩|
⑪⑨口口 |⑪⑫⑬-|
61
口口口口 |①-②③|
⑦⑥⑤④ |④⑤⑥⑦|
②③口口
口口①①

⑪⑨⑫⑩
口口口口
口口⑧⑭ |⑧⑨⑩⑪|
口⑬口⑭ |⑫⑬⑭-|
62
口口口口 |①---|
口③②④ |②---|
①③②④ |③---|
①口口口 |④---|
63
口①①口 |①-②-|
口④③口 |--③-|
口④③口 |--④-|
⑤②②⑤ |--⑤-|
64
⑥②①⑤ |--①②|
⑫⑪⑩⑨ |③④⑤⑥|
口⑧⑦⑬ |⑦⑧⑨⑩|
口④③⑬ |⑪⑫⑬-|
65
⑤④③② |①-②③|
口⑦⑥口 |④⑤⑥⑦|
①口口口
①口口口

口口口口
⑨口口口
⑨口⑧口 |⑧---|
口口⑧口 |⑨---|
66
口口②口 |①---|
口口④② |----|
口③口口 |②---|
①口口① |③-④-|
67
口口口口 |①---|
口口口口 |----|
①口口口 |②---|
②①口② |----|
68
口①口口 |①---|
①口口口 |----|
口口口② |②---|
口口②口 |----|
69
②口口① |①--②|
口②③① |--③-|
①口③②
③口口口

口④⑥口
④⑥口口
口⑤口口 |-④--|
口口⑤④ |⑤-⑥-|
70
②⑥⑬⑨ |①-②③|
⑧⑫⑤① |④⑤⑥⑦|
⑧⑩③① |⑧-⑨⑩|
④⑭⑦⑪ |⑪⑫⑬⑭|
71
口②口⑤ |①-②③|
④口口① |④⑤⑥⑦|
口口⑦①
⑥口③口

⑧口⑪口
口⑩⑮⑬
口⑭口口 |⑧⑨⑩⑪|
口⑫口⑨ |⑫⑬⑭⑮|
72
⑦③口口 |①-②③|
①口口口 |④⑤⑥⑦|
①口⑥口
⑤口②④

口口⑫⑩
⑮⑨口⑭
⑪⑬口⑧ |⑧⑨⑩⑪|
口口口口 |⑫⑬⑭⑮|
73
③口口⑥ |①②③-|
口⑧⑦⑪ |④⑤⑥-|
口⑩⑨⑪ |--⑦⑧|
④⑤②① |⑨⑩⑪-|
74
⑥口口③ |①②③-|
口⑧⑦⑪ |④⑤⑥-|
口⑩⑨⑪ |--⑦⑧|
①②⑤④ |⑨⑩⑪-|
75
口口①① |①---|
口口口口 |----|
①口口口 |----|
①口口口 |----|

不確定度: 0

最終更新:2014年07月20日 00:39