終末を追う者
S-C-U×PON

EXTREME

Level: 10
BPM: 185
Notes: 834

1
口口口口 |----|
口口口口 |----|
口口口口 |----|
①②口口 |--①②|
2
⑤口口① |①-②-|
口②③口 |③-④-|
④口①口 |--⑤-|
口口口⑥ |⑥---|
3
口口口⑦ |--①②|
⑥口①口 |③-④-|
口②③口 |⑤--⑥|
④口⑤口 |--⑦-|
4
②口②口 |①---|
口口口口 |--②-|
①①口口 |----|
口口口口 |----|
5
口口口口 |----|
口口口口 |----|
口口口口 |----|
口口②① |--①②|
6
①口口⑤ |①-②-|
口③②口 |③-④-|
口①口④ |--⑤-|
⑥口口口 |⑥---|
7
⑦口口口 |--①②|
口①口⑥ |③-④-|
口③②口 |⑤--⑥|
口⑤口④ |--⑦-|
8
口②口② |①---|
口口口口 |--②-|
口口①① |----|
口口口口 |----|
9
口口口口 |①---|
口②②口 |----|
口①①口 |②---|
③④口口 |--③④|
10
②口⑤① |①-②-|
④⑥口口 |③-④-|
⑤②①口 |--⑤-|
⑦口口③ |⑥-⑦-|
11
①口口口 |--①②|
④⑧①④ |③-④-|
⑥⑤②⑦ |⑤-⑥⑦|
⑧口③口 |--⑧-|
12
②口口口 |①-②-|
③口口口 |--③-|
④口口口 |--④-|
⑤③口① |--⑤-|
13
①口口口 |--①-|
②口口口 |--②-|
③口口口 |--③-|
④口口口 |--④-|
14
④口口口 |①-②-|
口⑧①⑤ |③-④-|
⑥②⑦口 |⑤-⑥-|
口口口③ |⑦-⑧-|
15
口④⑤① |①-②-|
⑧口口口 |③-④-|
口口口口 |⑤-⑥-|
②⑥③⑦ |⑦-⑧-|
16
⑥口口⑦ |①②③④|
口⑧③⑤ |⑤⑥⑦⑧|
④②口①
口口口口

口⑩口口
⑫口口口
口⑯⑬⑮ |⑨⑩⑪⑫|
⑭口⑨⑪ |⑬⑭⑮⑯|
17
⑥⑧⑤⑦ |①②③④|
口口①③ |⑤⑥⑦⑧|
②口口口
口④口口

口口口口
⑫⑪口口
⑯⑮⑭⑬ |⑨⑩⑪⑫|
口口⑩⑨ |⑬⑭⑮⑯|
18
②口口④ |①-②③|
口⑥①① |-④⑤-|
⑦⑧⑨⑩ |--⑥-|
③口口⑤ |⑦⑧⑨⑩|
19
④①口② |①-②③|
①⑥口口 |-④⑤-|
⑩⑨⑧⑦ |--⑥-|
⑤口口③ |⑦⑧⑨⑩|
20
②口①④ |①-②③|
口口口① |-④⑤-|
口口口口
③口口⑤

口口口口
⑧⑥⑥⑧
口⑦⑦口 |--⑥-|
口口口口 |⑦-⑧-|
21
⑥②③⑦ |①②③④|
⑯⑮⑭⑬ |⑤⑥⑦⑧|
⑫⑪⑩⑨ |⑨⑩⑪⑫|
④⑧①⑤ |⑬⑭⑮⑯|
22
②口①④ |①-②③|
口口口口 |-④⑤-|
⑦⑧⑨⑩ |--⑥-|
③⑥口⑤ |⑦⑧⑨⑩|
23
④①口② |①-②③|
①⑥口口 |-④⑤-|
⑩⑨⑧⑦ |--⑥-|
⑤口口③ |⑦⑧⑨⑩|
24
②口①④ |①-②③|
口口口① |-④⑤-|
口口口口
③口口⑤

口口口口
⑧⑥⑥⑧
口⑦⑦口 |--⑥-|
口口口口 |⑦-⑧-|
25
⑥②③⑦ |①②③④|
⑯⑮⑭⑬ |⑤⑥⑦⑧|
⑫⑪⑩⑨ |⑨⑩⑪⑫|
④⑧①⑤ |⑬⑭⑮⑯|
26
②③口口 |①-②③|
⑩口口⑪ |-④⑤-|
口⑧⑦⑥ |⑥⑦⑧-|
④⑤①⑨ |⑨-⑩⑪|
27
口①⑥口 |①-②-|
口⑦②口 |③-④-|
口口④口 |⑤-⑥-|
⑤③⑧口 |⑦-⑧-|
28
口口⑧④ |①-②-|
⑦口口口 |③-④-|
③①⑥口 |⑤-⑥-|
口⑤口② |⑦-⑧-|
29
⑥①口口 |①-②-|
口口②⑦ |③-④-|
口④口口 |⑤-⑥-|
⑤⑧③口 |⑦-⑧-|
30
口⑤口④ |①-②-|
⑦口③口 |③-④-|
口口①⑥ |⑤-⑥-|
口口⑧② |⑦-⑧-|
31
①口⑥口 |①-②-|
口⑦②口 |③-④-|
①口④口 |⑤-⑥-|
⑤③⑧口 |⑦-⑧-|
32
口口⑧④ |①-②-|
⑦口口口 |③-④-|
③①⑥口 |⑤-⑥-|
口⑤口② |⑦-⑧-|
33
⑥①口口 |①-②-|
口口②⑦ |③-④-|
口④口口 |⑤-⑥-|
⑤⑧③口 |⑦-⑧-|
34
口⑤口④ |①-②-|
⑦口③口 |③-④-|
口口①⑥ |⑤-⑥-|
口口⑧② |⑦-⑧-|
35
①⑤④⑥ |①-②③|
⑦③口口 |④-⑤-|
口口②口 |--⑥-|
口口口⑧ |⑦-⑧-|
36
口③口口 |①---|
口口①口 |②---|
⑤⑥口② |③---|
口口④口 |④-⑤⑥|
37
口④⑤口 |①-②-|
口⑥口③ |③-④-|
口口①口 |--⑤-|
②口口⑦ |⑥-⑦-|
38
⑤⑥口口 |①---|
①口口口 |②---|
口口②④ |③---|
③口口口 |④-⑤⑥|
39
口口①⑦ |①-②③|
口⑥⑤口 |④-⑤⑥|
⑧口⑩⑨ |--⑦-|
口④③② |⑧-⑨⑩|
40
④口口口 |①--②|
口③②口 |③-④-|
口①口口
口口口口

口口口口
口口口⑤
⑩⑨⑧⑦ |⑤-⑥-|
⑥口口口 |⑦⑧⑨⑩|
41
③口口② |①--②|
①口口口 |--③-|
口口口口 |④-⑤-|
⑦⑤⑥④ |⑥-⑦-|
42
口口①① |①-②③|
口②③③ |-④⑤-|
口④⑤⑤ |--⑥-|
⑦⑥⑦⑥ |--⑦-|
43
⑤口①⑤ |①-②-|
口③②① |③-④-|
口④③口 |--⑤-|
⑥口口⑥ |⑥---|
44
口①口⑦ |--①②|
口③②口 |③-④-|
④⑥口口 |⑤--⑥|
口口⑤口 |--⑦-|
45
⑦②③⑧ |①-②-|
②④④③ |③-④-|
⑨⑤⑥⑩ |⑤⑥⑦⑧|
①⑪⑫① |⑨⑩⑪⑫|
46
⑨①②⑩ |①②③④|
③⑤⑥④ |⑤⑥⑦⑧|
⑪⑦⑧⑫ |⑨⑩⑪⑫|
⑬⑭⑮⑯ |⑬⑭⑮⑯|
47
⑤①口⑤ |①-②-|
①②③口 |③-④-|
口③④口 |--⑤-|
⑥口口⑥ |⑥---|
48
口口口⑥ |--①②|
口口口① |③-④-|
②口口③ |⑤--⑥|
⑦④⑤口 |--⑦-|
49
⑥②①⑤ |①-②-|
④②①③ |③-④-|
⑩④③⑨ |⑤⑥⑦⑧|
⑫⑧⑦⑪ |⑨⑩⑪⑫|
50
⑩②①⑨ |①②③④|
④⑥⑤③ |⑤⑥⑦⑧|
⑫⑧⑦⑪ |⑨⑩⑪⑫|
⑯⑮⑭⑬ |⑬⑭⑮⑯|
51
⑤口①⑤ |①-②-|
口③②① |③-④-|
口④③口 |--⑤-|
⑥口口⑥ |⑥---|
52
口⑦④⑦ |--①②|
③②口④ |③-④-|
⑤⑥①口 |⑤-⑥-|
口⑤口⑥ |--⑦-|
53
口口口口 |①---|
②口口③ |②③④⑤|
④口口⑤
①口①口

⑧口口⑨
口口口口
口⑥⑦口 |⑥⑦⑧⑨|
⑫⑩⑪⑬ |⑩⑪⑫⑬|
54
⑨①②⑩ |①②③④|
③⑤⑥④ |⑤⑥⑦⑧|
⑪⑦⑧⑫ |⑨⑩⑪⑫|
⑬⑭⑮⑯ |⑬⑭⑮⑯|
55
⑤①口⑤ |①-②-|
①②③口 |③-④-|
口③④口 |--⑤-|
⑥口口⑥ |⑥---|
56
口⑦口口 |--①②|
⑥①口口 |③-④-|
口口②④ |⑤--⑥|
口③⑤口 |--⑦-|
57
③口口④ |①-②-|
口③⑤② |③-④-|
①⑥④口 |----|
①口口② |--⑤⑥|
58
④②⑥口 |①-②-|
②④口⑥ |③-④-|
⑥口③口 |--⑤-|
⑤⑥①③ |⑥---|
59
⑧①⑧① |①-②-|
④⑤口口 |③-④⑤|
口②⑨③ |-⑥⑦-|
口口⑦⑥ |⑧-⑨-|
60
⑧口口口 |①-②③|
口口③② |-④⑤-|
①口⑨口 |⑥⑦⑧⑨|
④⑤⑦⑥
61
⑧①⑧① |①-②-|
④⑤口口 |③-④⑤|
口②⑨③ |-⑥⑦-|
口口⑦⑥ |⑧-⑨-|
62
⑧口口口 |①-②③|
口口③② |-④⑤-|
①口⑨口 |⑥⑦⑧⑨|
④⑤⑦⑥
63
⑧①⑧① |①-②-|
④⑤口口 |③-④⑤|
口②⑨③ |-⑥⑦-|
口口⑦⑥ |⑧-⑨-|
64
⑧口口口 |①-②③|
口口③② |-④⑤-|
①口⑨口 |⑥⑦⑧⑨|
④⑤⑦⑥
65
⑧①⑧① |①-②-|
④⑤口口 |③-④⑤|
口②⑨③ |-⑥⑦-|
口口⑦⑥ |⑧-⑨-|
66
⑧口口口 |①-②③|
口口③② |-④⑤-|
①口⑨口 |⑥⑦⑧⑨|
④⑤⑦⑥
67
⑧①⑧① |①-②-|
④⑤口口 |③-④⑤|
口②⑨③ |-⑥⑦-|
口口⑦⑥ |⑧-⑨-|
68
口口口口 |①-②③|
口口③② |-④⑤-|
①口口口
④⑤口口

⑩口⑪口
⑥⑦口口
⑫口⑬口 |⑥⑦⑧⑨|
口口⑧⑨ |⑩⑪⑫⑬|
69
⑧①⑧① |①-②-|
④⑤口口 |③-④⑤|
口②⑨③ |-⑥⑦-|
口口⑦⑥ |⑧-⑨-|
70
口口口口 |①-②③|
口口③② |-④⑤-|
①口口口
④⑤口口

⑩口⑪口
⑥⑦口口
⑫口⑬口 |⑥⑦⑧⑨|
口口⑧⑨ |⑩⑪⑫⑬|
71
⑧①⑧① |①-②-|
④⑤口口 |③-④⑤|
口②⑨③ |-⑥⑦-|
口口⑦⑥ |⑧-⑨-|
72
口口口口 |①-②③|
口口③② |-④⑤-|
①口口口
④⑤口口

⑩口⑪口
⑥⑦口口
⑫口⑬口 |⑥⑦⑧⑨|
口口⑧⑨ |⑩⑪⑫⑬|
73
⑧①⑧① |①-②-|
④⑤口口 |③-④⑤|
口②⑨③ |-⑥⑦-|
口口⑦⑥ |⑧-⑨-|
74
口口口口 |①-②③|
口口③② |-④⑤-|
①口口口
④⑤口口

口口口口
⑨⑧口口
⑬⑫⑪⑩ |⑥⑦⑧⑨|
口口⑦⑥ |⑩⑪⑫⑬|
75
②口口④ |①-②③|
口⑥①① |-④⑤-|
⑦⑧⑨⑩ |--⑥-|
③口口⑤ |⑦⑧⑨⑩|
76
④①口② |①-②③|
①⑥口口 |-④⑤-|
⑩⑨⑧⑦ |--⑥-|
⑤口口③ |⑦⑧⑨⑩|
77
②口①④ |①-②③|
口口口① |-④⑤-|
口口口口
③口口⑤

口口口口
⑧⑥⑥⑧
口⑦⑦口 |--⑥-|
口口口口 |⑦-⑧-|
78
⑥②③⑦ |①②③④|
⑯⑮⑭⑬ |⑤⑥⑦⑧|
⑫⑪⑩⑨ |⑨⑩⑪⑫|
④⑧①⑤ |⑬⑭⑮⑯|
79
②口①④ |①-②③|
口口口口 |-④⑤-|
⑦⑧⑨⑩ |--⑥-|
③⑥口⑤ |⑦⑧⑨⑩|
80
④①口② |①-②③|
①⑥口口 |-④⑤-|
⑩⑨⑧⑦ |--⑥-|
⑤口口③ |⑦⑧⑨⑩|
81
②口①④ |①-②③|
口口口① |-④⑤-|
口口口口
③口口⑤

口口口口
⑧⑥⑥⑧
口⑦⑦口 |--⑥-|
口口口口 |⑦-⑧-|
82
⑥②③⑦ |①②③④|
⑯⑮⑭⑬ |⑤⑥⑦⑧|
⑫⑪⑩⑨ |⑨⑩⑪⑫|
④⑧①⑤ |⑬⑭⑮⑯|
83
②②①口 |①---|
口口口口 |②---|
口口口口 |----|
②②口口 |----|

不確定度: 0

最終更新:2014年07月20日 00:47