Arousing
DJ TOTTO feat.吉河順央

EXTREME

Level: 9
BPM: 179
Notes: 797

1
口口口口 |----|
口口口口 |----|
口口口口 |----|
口口口口 |----|
2
口口口口 |----|
口口口口 |----|
口口口① |①---|
口口①口 |----|
3
口口口② |①---|
口口②① |----|
口口①口 |②---|
口口口口 |----|
4
③口口口 |①-②-|
口口口口 |③-④-|
口①②口
口口④口

口口口口
口⑦⑥⑤
口⑦口⑤ |⑤---|
口口口口 |⑥-⑦-|
5
⑤②口① |--①-|
②口口口 |--②-|
口口口③ |③---|
口口③④ |--④⑤|
6
口口④口 |①-②-|
口口①⑤ |③-④-|
⑦③⑥⑤ |⑤---|
②⑦口口 |⑥-⑦-|
7
②口口口 |--①-|
①②口口 |--②-|
口①口口 |--③-|
③④口③ |--④-|
8
口口①口 |①---|
口口口① |----|
口口口口 |②---|
②口②② |----|
9
③③③口 |①---|
②口②② |--②-|
①①口① |----|
口口口口 |③---|
10
口口口口 |①---|
口口口口 |----|
口口口口 |----|
口①①① |----|
11
口口⑨口 |①-②-|
口②③⑨ |③-④-|
⑧⑥⑤⑦ |⑤⑥⑦⑧|
口④①口 |⑨---|
12
③口⑧口 |①-②-|
口②⑥⑧ |③-④-|
口⑦④⑥ |⑤-⑥-|
口⑤①① |⑦-⑧-|
13
②②口口 |①---|
口口口口 |②---|
口口口口
口口①①

口口口口
口口口口
③④⑤⑥ |③④⑤⑥|
⑦⑧⑨⑩ |⑦⑧⑨⑩|
14
⑦③②⑥ |①②③④|
⑤①④⑧ |⑤⑥⑦⑧|
口口口口
口口口口

口口⑭口
口口口口
⑨⑩⑪⑫ |⑨⑩⑪⑫|
口⑬口口 |⑬-⑭-|
15
⑤⑥口口 |--①-|
⑥⑤口④ |②-③-|
口③口④ |④-⑤-|
①口口② |--⑥-|
16
口⑧口③ |①-②-|
⑧⑥②口 |③-④-|
⑥④⑦口 |⑤-⑥-|
①①⑤口 |⑦-⑧-|
17
口口②② |①---|
口口口口 |②---|
口口口口
①①口口

口口口口
口口口口
⑥⑤④③ |③④⑤⑥|
⑩⑨⑧⑦ |⑦⑧⑨⑩|
18
⑥②③⑦ |①②③④|
⑧④①⑤ |⑤⑥⑦⑧|
口口口口
口口口口

口⑭口口
口口口口
⑫⑪⑩⑨ |⑨⑩⑪⑫|
口口⑬口 |⑬-⑭-|
19
口口⑥④ |--①-|
口口②⑥ |②-③-|
⑤口口口 |④-⑤-|
③①口口 |⑥---|
20
⑤口⑦③ |①---|
口口口口 |②-③-|
⑥口口④ |④-⑤-|
②口①① |⑥-⑦-|
21
口口口⑤ |①-②-|
②口口⑤ |③-④-|
口①①⑥ |⑤---|
③口⑦④ |⑥-⑦-|
22
②口口口 |①-②-|
②口③口 |--③-|
⑤③口④ |--④-|
⑤①口④ |⑤---|
23
①①口④ |①---|
口②③④ |②-③-|
口口口⑤ |④---|
口口⑥口 |⑤-⑥-|
24
②口口口 |①-②-|
②③口④ |--③-|
⑤①③④ |--④-|
⑤口口口 |--⑤-|
25
③口口口 |①-②-|
④口口口 |③-④-|
口口口口
口口①②

口口口口
口口口口
口口口口 |----|
口⑤⑥口 |⑤-⑥-|
26
④⑤⑥⑧ |①-②-|
③口⑧口 |③-④-|
②口口口 |⑤-⑥-|
①口口⑦ |⑦-⑧-|
27
口④⑤⑦ |--①-|
口③⑦口 |②-③-|
口②口口 |④-⑤-|
口①口⑥ |⑥-⑦-|
28
口④口口 |--①-|
④口口口 |②---|
口口口③ |③-④-|
②①③口 |----|
29
④口口口 |①-②-|
④口口② |③---|
⑤①①口 |④---|
口⑥口③ |⑤-⑥-|
30
口口口② |①-②-|
口③口② |--③-|
④口③⑤ |--④-|
④口①⑤ |⑤---|
31
④口①① |①---|
④③②口 |②-③-|
⑤口口口 |④---|
口⑥口口 |⑤-⑥-|
32
口口口② |①-②-|
④口③② |--③-|
④③①⑤ |--④-|
口口口⑤ |--⑤-|
33
口口口③ |①-②-|
口口口④ |③-④-|
口口口口
②①口口

口口口口
口口口口
口口口口 |----|
口⑥⑤口 |⑤-⑥-|
34
⑧⑥⑤④ |①-②-|
口⑧口③ |③-④-|
口口口② |⑤-⑥-|
⑦口口① |⑦-⑧-|
35
⑥④③口 |--①-|
口⑥口口 |②---|
口口②口 |③-④-|
⑤口①口 |⑤-⑥-|
36
口口④口 |--①-|
口口口④ |②---|
口口口口 |③---|
口③①② |④---|
37
①④⑥① |①---|
④口口⑥ |②-③-|
口③口口 |④---|
②口口⑤ |⑤-⑥-|
38
③②口④ |--①-|
④口口口 |--②-|
③②口口 |③---|
口①①口 |--④-|
39
口②口口 |①---|
口①口口 |②---|
口口口②
口口①口

④口⑤口
⑥口③口
口⑤口口 |③-④-|
③口⑥④ |⑤-⑥-|
40
口②口① |--①-|
口口口口 |--②-|
①口②口 |③---|
③口口③ |----|
41
口口①① |①---|
⑤⑥②③ |②-③-|
③⑤口② |④---|
④④口⑥ |⑤-⑥-|
42
①①③口 |--①-|
口④口③ |--②-|
②口④口 |③---|
口②口口 |--④-|
43
②口⑤① |①---|
口⑥③口 |②---|
④⑤⑥② |③-④-|
①③口④ |⑤-⑥-|
44
②②口① |--①-|
②口口口 |--②-|
口口口③ |③---|
①口③③ |----|
45
⑤口②① |①---|
口③①⑥ |②-③-|
④①口口 |④---|
④口⑥口 |⑤-⑥-|
46
口④口③ |--①-|
①口③口 |--②-|
④③口口 |③---|
②①口② |--④-|
47
②⑥口口 |①---|
⑥②③① |②---|
口口②④ |③-④-|
⑤口①口 |⑤-⑥-|
48
口口⑤③ |--①-|
口口③⑤ |--②-|
②③①④ |③-④-|
口②④① |--⑤-|
49
①②口口 |①---|
口①口口 |----|
口③①⑤ |②-③-|
口口口④ |④-⑤-|
50
口口①① |①---|
②②口口 |--②-|
口口口口 |----|
③口口③ |③---|
51
①口⑤① |①-②-|
⑦⑦③⑤ |③-④-|
口④⑧③ |⑤-⑥-|
⑥②口口 |⑦-⑧-|
52
①①口口 |①-②-|
⑤口②⑤ |--③-|
②③⑥③ |--④-|
④③②④ |⑤-⑥-|
53
口口①① |①-②-|
口④口口 |③-④-|
②口口③
口口③口

⑤⑤⑧口
⑦口⑥口
口口口口 |⑤-⑥-|
⑦口口口 |⑦-⑧-|
54
⑯⑧⑮⑦ |①②③④|
⑭⑥⑬⑤ |⑤⑥⑦⑧|
⑫④⑪③ |⑨⑩⑪⑫|
⑩②⑨① |⑬⑭⑮⑯|
55
口口口口 |----|
口口口口 |----|
口口口口 |----|
口口口口 |----|
56
口①①② |①-②-|
④③口口 |③-④-|
口①①②
④③口口

⑤口口口
口口⑥⑥
⑦⑦口口 |⑤---|
口口口⑤ |⑥-⑦-|
57
②⑤口口 |--①-|
③口④口 |--②-|
口口①口 |③---|
口①③② |--④⑤|
58
⑤⑦①② |①-②-|
④③⑥口 |③-④-|
口⑥①② |⑤---|
④③⑦⑤ |⑥-⑦-|
59
口口①③ |--①-|
②口④口 |--②-|
口④口① |--③-|
③②口口 |--④-|
60
①口③口 |----|
口①口③ |①---|
②口①④ |--②-|
口②④① |③-④-|
61
口①口③ |①---|
①③④口 |②---|
④⑤⑤口 |③--④|
②口口② |--⑤-|
62
④②②⑤ |①---|
口④⑤口 |--②-|
③口口③ |③-④-|
口①①口 |--⑤-|
63
口口⑤口 |--①-|
①④口② |--②-|
口①②③ |--③-|
口口口口 |④-⑤-|
64
⑥①口④ |①-②-|
③⑥②⑦ |③-④-|
①口④⑤ |⑤---|
⑤③⑦② |⑥-⑦-|
65
口口①② |--①-|
口口①口 |--②-|
口口②口
口口口口

④③口口
口口⑤口
口③口口 |③---|
口口口口 |--④⑤|
66
⑥⑥②④ |①-②-|
③①口⑤ |③-④-|
⑤口④② |⑤---|
①③⑦⑦ |⑥-⑦-|
67
口口②口 |--①-|
①口⑥② |--②-|
③⑤④口 |③-④-|
①③口口 |⑤-⑥-|
68
口②③④ |①---|
②①口口 |②---|
口⑤口② |--③-|
口口②口 |④-⑤-|
69
⑤口口口 |①---|
口口③口 |②-③-|
口口口④ |--④-|
①②口口 |--⑤-|
70
口②⑤口 |①---|
②③③⑤ |②-③-|
④①①④ |--④-|
⑤口口② |⑤---|
71
①③④② |①---|
③⑤口④ |②---|
④②①③ |③--④|
口口⑤口 |--⑤-|
72
③③④口 |①---|
口口①④ |②-③-|
口口②口 |----|
口①口口 |④---|
73
②⑤⑤口 |①---|
口口口口 |②-③-|
①口口③ |--④-|
④①③④ |--⑤-|
74
口口口⑤ |①---|
口②①⑤ |②---|
口④③口 |③---|
口口口口 |④-⑤-|
75
②口⑨口 |--①-|
口口⑥口 |②-③-|
⑦⑧口③ |④⑤⑥-|
④⑤口① |⑦⑧⑨-|
76
③①⑧口 |①-②-|
①③⑥⑧ |③-④-|
口口②⑥ |⑤-⑥-|
④口⑦⑤ |⑦-⑧-|
77
口口口① |①---|
①口口口 |②---|
②②口口
口口口口

③口⑩⑨
口④口口
口口⑤口 |③④⑤⑥|
⑦⑧口⑥ |⑦⑧⑨⑩|
78
⑪①⑭口 |①②③④|
⑥⑨②⑦ |⑤⑥⑦⑧|
⑤③⑩⑧ |⑨⑩⑪⑫|
⑬口④⑫ |⑬-⑭-|
79
⑤③口③ |--①-|
③口口⑤ |②-③-|
④②口④ |--④-|
口①④口 |--⑤-|
80
口⑧口③ |①-②-|
⑧⑥③口 |③-④-|
⑥④⑦口 |⑤-⑥-|
①①⑤② |⑦-⑧-|
81
口口②② |①---|
口口口口 |②---|
口口口口
①①口口

口口口口
口口口口
⑥⑤④③ |③④⑤⑥|
⑩⑨⑧⑦ |⑦⑧⑨⑩|
82
⑥②③⑦ |①②③④|
⑧④①⑤ |⑤⑥⑦⑧|
口口口口
口口口口

口⑭口口
口口口口
⑫⑪⑩⑨ |⑨⑩⑪⑫|
口口⑬口 |⑬-⑭-|
83
④口⑨⑨ |①②③④|
⑥②⑤③ |⑤⑥⑦⑧|
口⑧口⑦ |⑨---|
⑩⑩口① |⑩---|
84
①口③口 |①-②-|
②①口③ |--③-|
②③口口
口口①口

⑥⑥口口
口口口口
口口④④ |④---|
⑤⑤口⑤ |⑤-⑥-|
85
口口③② |--①-|
③③①② |②---|
①口④④ |③---|
口④①口 |④---|
86
口③口② |①-②-|
口口口④ |③-④-|
④①口口 |----|
②口①③ |----|

不確定度: 0

最終更新:2014年08月01日 22:28