Heart of Gold
Alice Nine

EXTREME

Level: 9
BPM: 195
Notes: 523

1
口口口口 |----|
口口口口 |----|
口口口口 |----|
口口口口 |----|
2
口口④口 |①-②-|
①⑦口⑤ |③---|
口口⑥口 |④-⑤-|
③口②口 |⑥-⑦-|
3
口口口口 |①-②-|
口口④口 |③-④-|
口③口①
口口②口

口⑤口口
口⑦口⑥
口口口⑧ |⑤-⑥-|
口口口口 |⑦-⑧-|
4
口口④口 |①-②-|
①⑦口⑤ |③---|
口口⑥口 |④-⑤-|
③口②口 |⑥-⑦-|
5
口口口口 |①-②-|
口口④口 |③-④-|
口③口①
口口②口

口⑤口口
口⑦口⑥
口口口⑧ |⑤-⑥-|
口口口口 |⑦-⑧-|
6
口口④口 |①-②-|
①⑦口⑤ |③---|
口口⑥口 |④-⑤-|
③口②③ |⑥-⑦-|
7
口口口口 |①-②-|
口口④口 |③-④-|
口③口①
口口②口

口⑤口口
口⑦口⑥
口口口⑧ |⑤-⑥-|
口口口口 |⑦-⑧-|
8
口口④口 |①-②-|
①⑦口⑤ |③---|
口口⑥口 |④-⑤-|
③口②③ |⑥-⑦-|
9
口口口口 |①-②-|
口口④口 |③-④-|
口③口①
口口②口

口⑤口口
口⑦口⑥
口口口⑧ |⑤-⑥-|
口口口口 |⑦-⑧-|
10
口口④口 |①-②-|
①⑦③⑤ |③---|
口口⑥口 |④-⑤-|
③口②口 |⑥-⑦-|
11
口口口口 |①-②-|
口口④口 |③-④-|
口③口①
口口②口

口⑤口口
口⑦口⑥
口口口⑧ |⑤-⑥-|
口口口口 |⑦-⑧-|
12
口口④口 |①-②-|
①⑦③⑤ |③---|
口口⑥口 |④-⑤-|
③口②口 |⑥-⑦-|
13
口口口① |①---|
④口③口 |②-③-|
口口口⑤ |④-⑤-|
②口口口 |----|
14
口口口① |①---|
口②口③ |----|
口①口口 |----|
口③口口 |②-③-|
15
口口口口 |①---|
口口口口 |----|
口口口口
口口口①

②口③口
口口口口
③口④口 |②-③-|
口口口⑤ |④-⑤-|
16
口口口口 |--①-|
口②口① |②---|
口口口口 |----|
口①口口 |----|
17
口口口口 |----|
③口②口 |①-②-|
口口口④ |③-④-|
①口口口 |----|
18
口口口① |①---|
口②口③ |----|
口①口口 |----|
口③口口 |②-③-|
19
口口③口 |①---|
口口口口 |--②-|
③④②口 |--③-|
口口口① |--④-|
20
口①口口 |--①-|
口口③口 |--②-|
口口口① |--③-|
③④②口 |--④-|
21
口②③口 |--①-|
口①口口 |--②-|
③④④② |--③-|
口口口① |④---|
22
④④④口 |----|
口①①① |①-②-|
口口口口 |③---|
③口④② |④---|
23
口④④④ |----|
①①①口 |①-②-|
口口口口 |③---|
②④口③ |④---|
24
口口口⑤ |----|
④③②① |①-②-|
①②③④ |③-④-|
⑤口口口 |--⑤-|
25
①口口口 |--①-|
③口口② |--②-|
②口口③ |--③-|
口④④① |④---|
26
④④④口 |----|
口①①① |①-②-|
口口口口 |③---|
③口④② |④---|
27
口④④④ |----|
①①①口 |①-②-|
口口口口 |③---|
②④口③ |④---|
28
口口口⑤ |----|
④③②① |①-②-|
①②③④ |③-④-|
⑤口口口 |--⑤-|
29
①口口口 |--①-|
③②②③ |--②-|
④②②④ |----|
口口口① |③-④-|
30
①口口口 |----|
口口口② |----|
②口口口 |①---|
口口口① |②---|
31
口①口① |①---|
口口①口 |----|
口口口①
口口口口

口口口口
③口③②
口③口口 |----|
③口口口 |②-③-|
32
口口口口 |----|
口口口② |----|
①口口口 |①---|
口口口口 |②---|
33
口①口① |①---|
口口①口 |----|
口口口①
口口口口

口口口口
③口③②
口③口口 |----|
③口口口 |②-③-|
34
口口口口 |----|
口口口口 |----|
①口口口 |①---|
口②口口 |②---|
35
④口口口 |①---|
③④口① |----|
④口①② |②---|
口口口① |③-④-|
36
口口口口 |----|
口口口① |①---|
③口①② |②---|
口口口① |③---|
37
①口①口 |①---|
③①口③ |--②-|
③口②③ |----|
口②口② |③---|
38
口口口① |----|
②口口口 |----|
口口口② |①---|
①口口口 |②---|
39
①口①口 |①---|
口①口口 |----|
①口口口
口口口口

口口口口
②③口③
口口③口 |----|
口口口③ |②-③-|
40
口口口口 |----|
②口口口 |----|
口口口① |①---|
口口口口 |②---|
41
①口①口 |①---|
口①口口 |----|
①口口口
口口口口

口口口口
②③口③
口口③口 |----|
口口口③ |②-③-|
42
口口口口 |----|
口口口口 |----|
口口口① |①---|
口口②口 |②---|
43
口口口④ |①---|
①口④③ |----|
②①口④ |②---|
①口口口 |③-④-|
44
口口口口 |----|
①口口口 |①---|
②①口③ |②---|
①口口口 |③---|
45
口①口① |①---|
③口①③ |--②-|
口②口口 |----|
②口②口 |③---|
46
口①口口 |----|
③口②口 |----|
口④口① |①-②-|
口口③口 |③-④-|
47
口口口① |①---|
③口口② |--②-|
②口口③ |----|
①口口口 |③---|
48
口口口口 |----|
口口口口 |----|
口口口口 |----|
口口口口 |----|
49
①①口② |①---|
口①②口 |--②-|
口①③口 |----|
口口口③ |③---|
50
口②②口 |①---|
口口口口 |----|
口口口① |----|
口口①口 |②---|
51
①口口口 |①---|
口①口② |--②-|
①口②口 |----|
口③③② |③---|
52
口③③② |①---|
①口②口 |--②-|
口①口② |----|
①口口口 |③---|
53
①口口口 |①---|
口①口② |--②-|
①口②口 |----|
口③③② |③---|
54
③①口② |①-②-|
⑤口④口 |--③-|
口②口① |--④-|
④口⑤③ |⑤---|
55
口口①口 |①---|
③口口② |--②-|
②口口③ |----|
口①口口 |③---|
56
口口口口 |----|
口口口口 |----|
口口口口 |----|
口口口口 |----|
57
口②①口 |①---|
口①②③ |--②-|
③②①口 |----|
口口口③ |③---|
58
口②②口 |①---|
①口口口 |----|
口口口① |----|
①口口口 |②---|
59
①口口口 |①---|
口①口② |--②-|
①口②口 |----|
口③③② |③---|
60
口③③② |①---|
①口②口 |--②-|
口①口② |----|
①口口口 |③---|
61
①口口口 |①---|
口①口② |--②-|
①口②口 |----|
口③③② |③---|
62
③①口② |①-②-|
⑤口④口 |--③-|
口②口① |--④-|
④口⑤③ |⑤---|
63
②②②② |①---|
口口口口 |--②-|
①①①① |----|
口口口口 |----|
64
口口口口 |----|
口口口口 |----|
口口口口 |----|
口口口口 |----|
65
口口口口 |----|
口口口口 |----|
口口口口 |----|
口口口口 |----|
66
口③③口 |①-②-|
①⑤②④ |--③-|
口③③口 |--④-|
②口口⑤ |⑤---|
67
①口口① |①---|
口口口口 |--②-|
②口口② |----|
口口口口 |----|
68
口口口口 |----|
口口口口 |----|
口口口口 |----|
口口口口 |----|
69
口口④口 |①-②-|
①⑦口⑤ |③---|
口口⑥口 |④-⑤-|
③口②③ |⑥-⑦-|
70
口口口口 |①-②-|
口口④口 |③-④-|
口③口①
口口②口

口⑤口口
口⑦口⑥
口口口⑧ |⑤-⑥-|
口口口口 |⑦-⑧-|
71
口口④口 |①-②-|
①⑦口⑤ |③---|
口口⑥口 |④-⑤-|
③口②③ |⑥-⑦-|
72
口口口口 |①-②-|
口口④口 |③-④-|
①③口①
口口②口

口⑤口口
口⑦口⑥
口口口⑧ |⑤-⑥-|
口口口口 |⑦-⑧-|
73
口口④① |①-②-|
①⑦口⑤ |③---|
口口⑥口 |④-⑤-|
③口②③ |⑥-⑦-|
74
口口口口 |①-②-|
口口④口 |③-④-|
①③口①
口口②口

口⑤口口
口⑦口⑥
口口口⑧ |⑤-⑥-|
口口口口 |⑦-⑧-|
75
口口④④ |①-②-|
①⑦口⑤ |③---|
口口⑥口 |④-⑤-|
③口②③ |⑥-⑦-|
76
口口口口 |①-②-|
口口④口 |③-④-|
①③口①
口口②口

口⑤口口
口⑦口⑥
口口口⑧ |⑤-⑥-|
口口口口 |⑦-⑧-|
77
口口④口 |①-②-|
①⑦口⑤ |③---|
口口⑥口 |④-⑤-|
③口②③ |⑥-⑦-|
78
口口口口 |①-②-|
口口④口 |③-④-|
①③口①
口口②口

口⑤口口
口⑦口⑥
口口口⑧ |⑤-⑥-|
口口口口 |⑦-⑧-|


不確定度: 0

タグ:

+ タグ編集
  • タグ:

このサイトはreCAPTCHAによって保護されており、Googleの プライバシーポリシー利用規約 が適用されます。

最終更新:2013年04月07日 23:44