「善悪の彼岸」
小南泰葉

BASIC

Level: 2
BPM: 185
Notes: 101

1
口口口口 |----|
口口口口 |----|
口口口口 |----|
口口口口 |----|
2
①口口口 |①---|
口口口口 |----|
口口口口 |----|
口口口口 |----|
3
口①口口 |①---|
口口口口 |----|
口口口口 |----|
口口口口 |----|
4
口口①口 |①---|
口口口口 |----|
口口口口 |----|
口口口口 |----|
5
口口口① |①---|
口口口口 |----|
口口口口 |----|
口口口口 |----|
6
口口口口 |①---|
口口口① |----|
口口口口 |----|
口口口口 |----|
7
口口口口 |①---|
口口①口 |----|
口口口口 |----|
口口口口 |----|
8
口口口口 |①---|
口①口口 |----|
口口口口 |----|
口口口口 |----|
9
口口口口 |①---|
①口口口 |----|
口口口口 |----|
口口口口 |----|
10
口口口口 |①---|
口口口口 |----|
①口口口 |----|
口口口口 |----|
11
口口口口 |①---|
口口口口 |----|
口①口口 |----|
口口口口 |----|
12
口口口口 |①---|
口口口口 |----|
口口①口 |----|
口口口口 |----|
13
口口口口 |①---|
口口口口 |----|
口②口① |②---|
口口口口 |----|
14
口口口口 |①---|
口口②口 |----|
口口①口 |②---|
口口口口 |----|
15
口②口口 |①---|
口①口口 |----|
口口口口 |②---|
口口口口 |----|
16
口口①口 |①---|
口口口② |----|
口口口口 |②---|
口口口口 |----|
17
口口口口 |①---|
口口口口 |----|
口②①口 |②---|
口口口口 |----|
18
口口口口 |①---|
口②①口 |----|
口口口口 |②---|
口口口口 |----|
19
口口口口 |①---|
口口口口 |----|
①口口口 |②---|
口②口口 |----|
20
口口口口 |①---|
口②口口 |----|
口口①口 |②---|
口口口口 |----|
21
口口①口 |①---|
口口口② |----|
口口口口 |②---|
口口口口 |----|
22
口口口口 |----|
口口口口 |----|
口①口口 |①---|
口口口口 |----|
23
口口口口 |①---|
口①②口 |----|
口口口口 |②---|
口口口口 |----|
24
口②①口 |①---|
口口口口 |----|
口口口口 |②---|
口口口口 |----|
25
口口口口 |①---|
①口口口 |----|
口②口口 |②---|
口口口口 |----|
26
口口口口 |①---|
口②口口 |----|
口口①口 |②---|
口口口口 |----|
27
口口口口 |①---|
口口①口 |----|
口口口② |②---|
口口口口 |----|
28
口口口口 |①---|
口口口口 |----|
口②口口 |②---|
口口①口 |----|
29
口②口口 |①---|
口口①口 |----|
口口口口 |②---|
口口口口 |----|
30
口口①口 |①---|
口②②口 |----|
口口口口 |②---|
口口口口 |----|
31
口口口口 |----|
口口口口 |----|
口①①口 |①---|
口口口口 |----|
32
口口口口 |----|
口口口口 |----|
口①口口 |①---|
口口口口 |----|
33
口口口口 |①---|
口①口口 |----|
口口②口 |②---|
口口口口 |----|
34
口②口口 |①---|
口口①口 |----|
口口口口 |②---|
口口口口 |----|
35
口口①口 |①---|
口②口口 |----|
口口口口 |②---|
口口口口 |----|

BPM在185附近飘忽不定
36
口口口口 |①---|
口口①口 |----|
口②②口 |②---|
口口口口 |----|
37
口口口口 |①---|
口②②口 |----|
口口口口 |②---|
口①①口 |----|
38
①口口① |----|
口口口口 |----|
口口口口 |①---|
口口口口 |----|
39
口口口口 |----|
口口口口 |----|
口口口口 |----|
口口口口 |----|
40
口口口口 |----|
口口口口 |----|
口①口口 |①---|
口口口口 |----|
41
口口口口 |①---|
①口口口 |----|
口口②口 |②---|
口口口口 |----|
42
口口口口 |①---|
口口口① |----|
口口口口 |②---|
口②②口 |----|
43
口口口口 |----|
口口口口 |----|
口口口口 |----|
口口口口 |----|
44
口口口口 |----|
口口口口 |----|
口口①口 |①---|
口口口口 |----|
45
口口口口 |①---|
口口口① |----|
口②口口 |②---|
口口口口 |----|
46
口口口口 |①---|
①口口口 |----|
口口口口 |②---|
口②②口 |----|
47
口口口口 |----|
口口口口 |----|
口口口口 |----|
口口口口 |----|
48
口口口口 |----|
口口口口 |----|
口①口口 |①---|
口口口口 |----|
49
口口口口 |①---|
①口口口 |----|
口口②口 |②---|
口口口口 |----|
50
口②②口 |①---|
口口口① |----|
口口口口 |②---|
口口口口 |----|
51
口口口口 |----|
口口口口 |----|
口口口口 |----|
口口口口 |----|
52
口①①口 |----|
口口口口 |----|
口口口口 |①---|
口口口口 |----|
53
口口口口 |①---|
口①①口 |----|
②口口② |②---|
口口口口 |----|
54
口口口① |----|
口口口口 |----|
口口口口 |①---|
口口口口 |----|
55
口口①口 |----|
口口口口 |----|
口口口口 |①---|
口口口口 |----|
56
口①口口 |----|
口口口口 |----|
口口口口 |①---|
口口口口 |----|
57
①口口口 |----|
口口口口 |----|
口口口口 |①---|
口口口口 |----|
58
口口口口 |----|
①口口口 |----|
口口口口 |①---|
口口口口 |----|
59
口口口口 |----|
口①口口 |----|
口口口口 |①---|
口口口口 |----|
60
口口口口 |----|
口口①口 |----|
口口口口 |①---|
口口口口 |----|
61
口口口口 |①---|
口②口口 |----|
口①口口 |②---|
口口口口 |----|
62
口口口口 |①---|
口口口口 |----|
口口①口 |②---|
口②②口 |----|


不確定度: 0

最終更新:2013年05月30日 16:47