「善悪の彼岸」
小南泰葉

ADVANCED

Level: 7
BPM: 185
Notes: 325

1
口口口口 |----|
口口口口 |----|
口口口口 |----|
口口口口 |----|
2
①口②口 |①---|
口口口口 |②---|
口④口③ |③---|
口口口口 |④---|
3
口口口口 |①---|
①口②口 |②---|
口口口口 |③---|
口④口③ |④---|
4
口②口① |①---|
口口口口 |②---|
③口④口 |③---|
口口口口 |④---|
5
口口口口 |①---|
口②口① |②---|
口口口口 |③---|
③口④口 |④---|
6
①口②口 |①---|
口口口口 |②---|
口④口③ |③---|
口口口口 |④---|
7
口口口口 |①---|
①口②口 |②---|
口口口口 |③---|
口④口③ |④---|
8
口②口① |①---|
口口口口 |②---|
③口④口 |③---|
口口口口 |④---|
9
口口口口 |①---|
口②口① |②---|
口口口口 |③---|
③口④口 |④---|
10
①口②口 |①---|
口口口口 |②---|
口④口③ |③---|
口口口口 |④---|
11
口口口口 |①---|
①口②口 |②---|
口口口口 |③---|
口④口③ |④---|
12
①②④③ |①-②-|
口口口口 |----|
口口口口 |③-④-|
口口口口 |----|
13
口③⑥口 |①-②-|
⑤口④口 |----|
口①①口 |③-④-|
口②②口 |⑤-⑥-|
14
口口口口 |--①-|
口④口口 |--②-|
③①口口 |--③-|
口口口② |④---|
15
④口口① |①---|
口口口口 |②---|
③口口② |③---|
口口口口 |④---|
16
③口口② |----|
口口口口 |①---|
口口①口 |②---|
口口口口 |③---|
17
口口口口 |----|
口口口口 |①---|
口①口口 |②---|
口③口② |③---|
18
口①口口 |--①-|
口口⑥② |②-③-|
③⑦口⑤ |④-⑤-|
口口④口 |⑥-⑦-|
19
口③④口 |①---|
②口口口 |②-③-|
口口口⑤ |④---|
①口⑥口 |⑤-⑥-|
20
口③口⑤ |①-②-|
②⑥④口 |③-④-|
口①⑦口 |⑤-⑥-|
口口口口 |⑦---|
21
④口口③ |①---|
口口口口 |②---|
口口口口 |③---|
①口口② |④---|
22
口口口口 |----|
口口口口 |----|
口③口① |--①-|
口口②口 |②-③-|
23
口②口⑤ |①-②-|
③⑥①口 |③-④-|
口口④口 |--⑤-|
口口口口 |--⑥-|
24
②口①口 |①---|
口口口口 |②---|
③口④口 |③---|
口口口口 |④---|
25
③口②口 |①---|
口口口① |②---|
口口口口 |③---|
④口口口 |④---|
26
口口口② |①---|
口口口口 |②---|
口③口口 |----|
口口口① |③---|
27
口①④口 |①-②-|
口⑤②⑦ |③-④-|
③⑧⑥口 |⑤-⑥-|
口口口口 |⑦-⑧-|
28
口口⑧口 |①-②-|
口⑤③⑦ |③-④-|
④口⑥② |⑤-⑥-|
口口①口 |⑦-⑧-|
29
⑧①口⑤ |①-②-|
②⑦④口 |③-④-|
口③⑥口 |⑤-⑥-|
口口口口 |⑦-⑧-|
30
口②②口 |①---|
口口口口 |②---|
①③③① |③---|
口口口口 |----|
31
②口口② |①---|
口口口口 |②---|
①口口① |③---|
口③③口 |----|
32
口口口口 |----|
口口②口 |----|
口①口口 |①-②-|
口口③口 |--③-|
33
口③⑤口 |--①-|
②⑦口④ |②-③-|
口口⑥口 |④-⑤-|
①口口口 |⑥-⑦-|
34
口口⑥口 |①-②-|
⑦口口⑤ |③-④-|
①④口口 |⑤-⑥-|
口②口③ |--⑦-|
35
④口口口 |--①-|
口口③口 |--②-|
口②口口 |③---|
口口①口 |④---|

BPM在185附近飘忽不定
36
口口口① |①---|
口口口口 |----|
口口口口
口口口口

④口口④
口口口口
口②②口 |②-③-|
口③③口 |--④-|
37
口②②口 |--①-|
①③③① |--②-|
口口口口 |③---|
口④④口 |④---|
38
④②②③ |①---|
口口口口 |②---|
①口口① |③---|
口口口口 |④---|
39
口口口口 |①---|
②口口① |②---|
④口口③ |③---|
口口口口 |④---|
40
口口口口 |①---|
口④口口 |②---|
口口③口 |③-④-|
②⑤口① |--⑤-|
41
口③③口 |--①-|
口口口口 |--②-|
②④④① |--③-|
口口口口 |--④-|
42
口口口③ |----|
口口口口 |①---|
①口口① |②---|
口②②口 |③---|
43
口口口口 |①---|
①口口② |②---|
③口口④ |③---|
口口口口 |④---|
44
口口口口 |①---|
口口④口 |②---|
口③口口 |③-④-|
①口⑤② |--⑤-|
45
口③③口 |--①-|
口口口口 |--②-|
①口口② |----|
口口口口 |③---|
46
③口口④ |①---|
①口口① |②---|
口口口口 |③---|
②②②② |④---|
47
口口口口 |①---|
①口口② |②---|
③口口④ |③---|
口口口口 |④---|
48
口口口口 |①---|
口④口口 |②---|
口口③口 |③-④-|
①⑤口② |--⑤-|
49
②口口② |--①-|
口口口口 |--②-|
口口口① |----|
口③③口 |③---|
50
②④③② |①---|
口①①口 |②---|
②口口② |③---|
口口口口 |④---|
51
口口口口 |①---|
口②①口 |②---|
口④③口 |③---|
口口口口 |④---|
52
口口口口 |①---|
③口③口 |②---|
口④⑤口 |③---|
②口③① |④-⑤-|
53
口③②口 |①---|
口①口① |②-③-|
口口口口
口①口口

④口口④
⑤口口⑥
④口口④ |④---|
口口口口 |⑤-⑥-|
54
口④口③ |①---|
口②②口 |②---|
口②②口 |③---|
①口口① |④---|
55
口口口口 |①---|
口④口③ |②---|
①口②口 |③---|
口口口口 |④---|
56
③口④口 |①---|
口口口口 |②---|
口口口口 |③---|
①口②口 |④---|
57
口口口口 |①---|
③口④口 |②---|
口②口① |③---|
口口口口 |④---|
58
口④口③ |①---|
口口口口 |②---|
口口口口 |③---|
口②口① |④---|
59
口口口口 |①---|
口④口③ |②---|
①口②口 |③---|
口口口口 |④---|
60
④③③④ |①---|
口口口口 |②---|
口口口口 |③-④-|
①口②口 |----|
61
④③③④ |①-②-|
口口口口 |----|
②①①② |③-④-|
口口口口 |----|
62
口口口口 |①-②-|
②①①② |----|
口③③口 |③-④-|
④④④④ |----|


不確定度: 0

最終更新:2013年05月30日 16:47