「善悪の彼岸」
小南泰葉

EXTREME

Level: 9
BPM: 185
Notes: 637

1
口口口口 |----|
口口口口 |----|
口口口口 |----|
口口口口 |----|
2
⑤口口① |①-②-|
口②⑥口 |③-④-|
⑦口口③ |⑤-⑥-|
口④⑧口 |⑦-⑧-|
3
口⑤①口 |①-②-|
⑥口口② |③-④-|
口⑦③口 |⑤-⑥-|
⑧口口④ |⑦-⑧-|
4
⑤口口① |①-②-|
口②⑥口 |③-④-|
⑦口口③ |⑤-⑥-|
口④⑧口 |⑦-⑧-|
5
口⑤①口 |①-②-|
⑥口口② |③-④-|
口⑦③口 |⑤-⑥-|
⑧口口④ |⑦-⑧-|
6
⑤⑤①① |①-②-|
口②⑥口 |③-④-|
⑦⑦③③ |⑤-⑥-|
口④⑧口 |⑦-⑧-|
7
⑤⑤①① |①-②-|
⑥口口② |③-④-|
⑦⑦③③ |⑤-⑥-|
⑧口口④ |⑦-⑧-|
8
⑤⑤①① |①-②-|
口②⑥口 |③-④-|
⑦⑦③③ |⑤-⑥-|
口④⑧口 |⑦-⑧-|
9
⑤⑤①① |①-②-|
⑥口口② |③-④-|
⑦⑦③③ |⑤-⑥-|
⑧口口④ |⑦-⑧-|
10
⑤⑤①① |①-②-|
口②⑥口 |③-④-|
⑦⑦③③ |⑤-⑥-|
口④⑧口 |⑦-⑧-|
11
⑤⑤①① |①-②-|
⑥口口② |③-④-|
⑦⑦③③ |⑤-⑥-|
⑧口口④ |⑦-⑧-|
12
④④①① |①-②-|
⑤⑤②② |③---|
口⑥③口 |④-⑤-|
口口口口 |⑥---|
13
口⑥③口 |①-②-|
⑥④⑤③ |----|
①⑤④① |③-④-|
②口口② |⑤-⑥-|
14
口口④口 |--①-|
口口③④ |--②-|
①口口① |--③-|
口②②口 |④---|
15
①口④口 |①---|
④③口口 |②---|
②④口③ |③---|
口②③① |④---|
16
①②③① |----|
口口口口 |①---|
③口口② |②---|
口③②口 |③---|
17
①口口① |----|
口口口口 |①---|
口②②口 |②---|
③③③③ |③---|
18
①口口② |--①-|
⑦③③⑥ |②-③-|
③口④③ |④-⑤-|
口⑤口口 |⑥-⑦-|
19
④①①④ |①---|
⑥④④口 |②-③-|
③口⑤③ |④---|
②口口② |⑤-⑥-|
20
⑥口①口 |①-②-|
口口口⑤ |③-④-|
口②⑦口 |⑤-⑥-|
④口口③ |⑦---|
21
③①口③ |①---|
①③②③ |②---|
④①④② |③---|
口④②④ |④---|
22
口②①口 |①-②-|
口口口口 |--③-|
口口口口
③口③口

④口⑦口
口口口⑤
口⑥口口 |④-⑤-|
口口口口 |⑥-⑦-|
23
⑥口口⑥ |①-②-|
①⑤⑤口 |③-④-|
口口口② |--⑤-|
③口④口 |--⑥-|
24
口④③口 |①---|
①口口① |②---|
口③④口 |③---|
③②②④ |④---|
25
①④③② |①---|
②①②① |②---|
③口口④ |③---|
口④③口 |④---|
26
①口口② |①---|
口①②口 |②---|
口口口口 |----|
②③③① |③---|
27
⑥③口② |①-②-|
①口口④ |③-④-|
⑧口口⑦ |⑤-⑥-|
⑤口口⑤ |⑦-⑧-|
28
口口⑥口 |①-②-|
⑤②口④ |③-④-|
口⑦口口 |⑤-⑥-|
口③①⑧ |⑦-⑧-|
29
③⑧⑥口 |①-②-|
⑧①口⑥ |③-④-|
口口②口 |⑤-⑥-|
⑤口④⑦ |⑦-⑧-|
30
③口口③ |①---|
口①①口 |②---|
口①①口 |③-④-|
④②②④ |----|
31
⑤口①⑤ |①-②-|
①③②口 |③---|
口②①③ |④-⑤-|
④③口④ |----|
32
③口口③ |①-②-|
①口口① |----|
口⑤口口 |③-④-|
④②②④ |--⑤-|
33
口口口口 |①-②-|
④①①③ |③-④-|
口口口口
口②②口

口⑤⑤口
口⑧口口
⑥口⑦⑥ |⑤-⑥-|
口口口口 |⑦-⑧-|
34
①⑧⑥① |①-②-|
④口口③ |③-④-|
口⑦⑦口 |⑤-⑥-|
②⑤⑤② |⑦-⑧-|
35
口⑥⑥口 |①-②-|
③①①③ |③-④-|
⑤口口⑤ |⑤---|
口④口② |⑥---|

BPM在185附近飘忽不定
36
③⑤⑤③ |①---|
④①①④ |②---|
口②②口 |③-④-|
口口口口 |--⑤-|
37
③口口③ |①-②-|
⑥③③⑥ |--③-|
①⑤⑤① |④-⑤-|
②④④② |⑥---|
38
②①①② |①---|
⑥②②⑤ |②---|
②④口② |③-④-|
口口③口 |⑤-⑥-|
39
口口①口 |①-②-|
口②口⑦ |③-④-|
④⑧③口 |⑤-⑥-|
口⑥口⑤ |⑦-⑧-|
40
口③⑥② |①-②-|
①⑧④⑥ |③-④-|
⑤口⑧口 |⑤-⑥-|
口⑤⑦口 |⑦-⑧-|
41
②⑥口④ |①-②-|
⑧口③⑦ |③-④-|
⑤①口⑧ |⑤-⑥-|
④口⑥② |⑦-⑧-|
42
③口②③ |①-②-|
口③③口 |③-④-|
④①①口
口口口口

口⑥口口
口口口⑦
口⑧口口 |⑤-⑥-|
⑤⑤⑤⑤ |⑦-⑧-|
43
④口口⑤ |①-②-|
②⑥③口 |③-④-|
⑧口⑦① |⑤-⑥-|
口口口口 |⑦-⑧-|
44
④⑥⑦口 |①-②-|
⑥口⑧③ |③-④-|
口⑧口⑤ |⑤-⑥-|
②口⑤① |⑦-⑧-|
45
④⑥口② |①-②-|
口③口⑤ |③-④-|
①口⑧口 |⑤-⑥-|
②⑦⑦④ |⑦-⑧-|
46
③口②③ |①-②-|
口③③⑤ |③-④-|
①⑥⑦① |⑤-⑥-|
⑧口口④ |⑦-⑧-|
47
⑧④口③ |①-②-|
②口口⑦ |③-④-|
口⑥口① |⑤-⑥-|
口口⑤口 |⑦-⑧-|
48
口④口口 |①-②-|
口口③口 |③-④-|
口口①口
②口口口

口口⑥口
口⑧口⑥
⑤口⑧口 |⑤-⑥-|
口⑤⑦口 |⑦-⑧-|
49
②口口④ |①-②-|
③口⑤口 |③-④-|
口⑥⑧① |⑤-⑥-|
④⑦⑦② |⑦-⑧-|
50
⑥①①⑤ |①-②-|
③②④③ |③-④-|
③口口③ |⑤-⑥-|
口⑧⑦口 |⑦-⑧-|
51
口②①口 |①-②-|
口口⑤口 |③-④-|
④⑥口③ |⑤-⑥-|
⑧口⑦口 |⑦-⑧-|
52
②⑤口⑤ |①-②-|
⑤口⑥① |③-④-|
⑦⑥③口 |⑤---|
口④口口 |⑥-⑦-|
53
口口口口 |①---|
口②口③ |②-③-|
口口②①
①口①口

④口④⑤
口口口口
口口口⑥ |④---|
口④口④ |⑤-⑥-|
54
③②口口 |①---|
②口④② |②---|
⑤口②口 |③-④-|
①口⑥口 |⑤-⑥-|
55
⑤⑤口① |①-②-|
⑥②口口 |③-④-|
⑦⑦口③ |⑤-⑥-|
⑧④口口 |⑦-⑧-|
56
⑤⑤①① |①-②-|
口口⑥② |③-④-|
⑦⑦③③ |⑤-⑥-|
口口⑧④ |⑦-⑧-|
57
⑤⑤①① |①-②-|
⑥②口口 |③-④-|
⑦⑦③③ |⑤-⑥-|
⑧④口口 |⑦-⑧-|
58
⑤⑤①① |①-②-|
口口⑥② |③-④-|
⑦⑦③③ |⑤-⑥-|
口口⑧④ |⑦-⑧-|
59
⑤⑤①① |①-②-|
⑥②口口 |③-④-|
⑦⑦③③ |⑤-⑥-|
⑧④口口 |⑦-⑧-|
60
⑤⑤①① |①-②-|
⑥⑥口② |③-④-|
口⑦③③ |⑤-⑥-|
口口口④ |⑦---|
61
口口①① |①-②-|
口口②② |③---|
⑤口③⑤ |④-⑤-|
④口口④ |----|
62
②口口② |①-②-|
①③③① |----|
③④④③ |③-④-|
④④④④ |----|


不確定度: 0

最終更新:2013年05月30日 16:47