maximum the hormone
マキシマム ザ ホルモン

BASIC

Level: 4
BPM: 143-197
Notes: 335

BPM: 128
1
口口口口 |----|
口口口口 |----|
口口口口 |----|
口口口口 |----|

BPM在143附近飄忽不定
2
口口口口 |①---|
口口③口 |②---|
口口口② |③---|
口口①口 |----|
3
口口口口 |①---|
口③口口 |②---|
②口口口 |③---|
口①口口 |----|
4
口口口口 |①---|
口口口③ |②---|
口口②口 |③---|
口口口① |----|
5
口口口口 |①---|
③口口口 |②---|
口②口口 |③---|
①口口口 |----|
6
口①①口 |①---|
口口④口 |②---|
口口③口 |③---|
口口②口 |④---|
7
口①①口 |①---|
口④口口 |②---|
口③口口 |③---|
口②口口 |④---|
8
口口①① |①---|
口口口④ |②---|
口口口③ |③---|
口口口② |④---|
9
口口①① |①---|
口口口口 |----|
口口口口 |----|
口口口口 |----|
10
口①①口 |①---|
口④口口 |②---|
口③口口 |③---|
口②口口 |④---|
11
口①①口 |①---|
口口④口 |②---|
口口③口 |③---|
口口②口 |④---|
12
①①口口 |①---|
④口口口 |②---|
③口口口 |③---|
②口口口 |④---|
13
①①口口 |①---|
口口口口 |----|
口口口口 |----|
口口口口 |----|
14
口口②口 |①---|
口口③口 |②---|
口口④口 |③---|
口①①口 |④---|
15
口②口口 |①---|
口③口口 |②---|
口④口口 |③---|
口①①口 |④---|
16
口口口② |①---|
口口口③ |②---|
口口口④ |③---|
口口①① |④---|
17
口口口口 |①---|
口口口口 |----|
口口口口 |----|
口口①① |----|
18
口②口口 |①---|
口③口口 |②---|
口④口口 |③---|
口①①口 |④---|
19
口口②口 |①---|
口口③口 |②---|
口口④口 |③---|
口①①口 |④---|
20
②口口口 |①---|
③口口口 |②---|
④口口口 |③---|
①①口口 |④---|
21
口口口口 |①---|
口口口口 |----|
口口口口 |----|
①①①① |----|

BPM: 153
22
⑤口口④ |①--②|
口③③口 |--③-|
口②②口 |④---|
口①①口 |⑤---|
23
⑤③③④ |①--②|
口②②口 |--③-|
口①①口 |④---|
口口口口 |⑤---|
24
⑤口口④ |①--②|
口③③口 |--③-|
口②②口 |④---|
口①①口 |⑤---|
25
④口口⑤ |①--②|
口口③口 |--③-|
口②口口 |④---|
口口①口 |⑤---|
26
④③③⑤ |①--②|
口②②口 |--③-|
口①①口 |④---|
口口口口 |⑤---|
27
④口口⑤ |①--②|
口③③口 |--③-|
口②②口 |④---|
口①①口 |⑤---|
28
④③③⑤ |①--②|
口②②口 |--③-|
口①①口 |④---|
口口口口 |⑤---|
29
口口口口 |①---|
口口口口 |----|
口②②口 |②---|
①口口① |----|

BPM在197附近飄忽不定
30
①①①① |①---|
口口口口 |----|
口口口口 |----|
口口口口 |----|
31
口口口口 |----|
口口口口 |----|
口口口口 |----|
口口口口 |----|
32
口口口口 |①---|
口口口口 |----|
②口口① |②---|
①口口② |----|
33
口口口口 |①---|
口口口口 |----|
口②①口 |②---|
口①②口 |----|
34
②口口① |①---|
①口口② |----|
口口口口 |②---|
口口口口 |----|
35
②②①口 |①---|
口①②② |----|
口口口口 |②---|
口口口口 |----|
36
②口口① |①---|
①口口② |----|
口口口口 |②---|
口口口口 |----|
37
口口①① |①---|
①①口口 |----|
口口口口 |----|
口口口口 |----|
38
口口口口 |①---|
口口口口 |----|
②口口① |②---|
①口口② |----|
39
口口口口 |①---|
口口口口 |----|
②②①口 |②---|
口①②② |----|
40
口口口口 |①---|
口口口口 |----|
②口口① |②---|
①口口② |----|
41
口口口口 |①---|
口口口口 |----|
口口①① |----|
①①口口 |----|
42
①口口口 |①---|
口②口口 |②---|
口口③口 |③---|
口口口④ |④---|
43
口口口③ |①---|
口口④② |②---|
口口口① |③---|
口口口口 |④---|
44
口口口口 |①---|
④口口口 |②---|
③①口口 |③---|
②口口口 |④---|
45
①口口口 |①---|
口口口口 |----|
口口口口 |----|
口口口口 |----|
46
④口口口 |①---|
口③口口 |②---|
口口②口 |③---|
口口口① |④---|
47
口口口口 |①---|
①口口口 |②---|
②④口口 |③---|
③口口口 |④---|
48
口口口② |①---|
口口①③ |②---|
口口口④ |③---|
口口口口 |④---|
49
口口口口 |①---|
口口口口 |----|
口口口口 |----|
口口口① |----|
50
口口口④ |①---|
口口口③ |②---|
口口口② |③---|
口口口① |④---|
51
③②①口 |①---|
口口④口 |②---|
口④口口 |③---|
口口口口 |④---|
52
口口口口 |①---|
口口口口 |②---|
口口口口 |③---|
④③②① |④---|
53
口口口口 |①---|
口①口口 |----|
口口①口 |----|
口口口口 |----|
54
④口口口 |①---|
③口口口 |②---|
②口口口 |③---|
①口口口 |④---|
55
口①②③ |①---|
口④口口 |②---|
口口④口 |③---|
口口口口 |④---|
56
口口口口 |①---|
口口口口 |②---|
口口口口 |③---|
①②③④ |④---|
57
口口口口 |①---|
口口①口 |----|
口①口口 |----|
口口口口 |----|
58
口口口口 |①---|
①口口口 |----|
口口口口 |----|
口口口口 |----|
59
口口口口 |①---|
口①口口 |----|
口口口口 |----|
口口口口 |----|
60
口口口口 |①---|
口口①口 |----|
口口口口 |----|
口口口口 |----|
61
口口口口 |①---|
口口口① |----|
口口口口 |----|
口口口口 |----|
62
口口口口 |①---|
口口口口 |②---|
口口口口 |③---|
④③②① |④---|
63
口口口口 |①---|
②③④口 |②---|
①口口口 |③---|
口口口口 |④---|
64
口口口口 |①---|
口口口① |②---|
口④③② |③---|
口口口口 |④---|
65
口③③口 |①---|
口②②口 |②---|
①口口口 |③---|
口口口口 |----|
66
口口口口 |①---|
口口口口 |②---|
口口口口 |③---|
①②③④ |④---|
67
口口口③ |①---|
口④口② |②---|
口口④① |③---|
口口口口 |④---|
68
①②③④ |①---|
口口口口 |②---|
口口口口 |③---|
口口口口 |④---|
69
口口口口 |①---|
口口①口 |----|
口①口口 |----|
口口口口 |----|
70
口口口口 |①---|
口口口口 |②---|
口口口口 |③---|
④③②① |④---|
71
③口口口 |①---|
②口④口 |②---|
①④口口 |③---|
口口口口 |④---|
72
④③②① |①---|
口口口口 |②---|
口口口口 |③---|
口口口口 |④---|
73
口口口口 |①---|
口口①口 |----|
口①口口 |----|
口口口口 |----|
74
口口口口 |①---|
口口口口 |----|
口口口口 |----|
口①①口 |----|
75
口口口口 |①---|
口口口口 |----|
口口口口 |----|
口①①口 |----|
76
口口口口 |①---|
口口口口 |----|
口口口口 |----|
口①①口 |----|
77
口口口口 |①---|
口口口口 |----|
口口口口 |----|
口①①口 |----|
78
①口口口 |①---|
②口口口 |②---|
③口口口 |③---|
④口口口 |④---|
79
口④口口 |①---|
口③口口 |②---|
口②口口 |③---|
口①口口 |④---|
80
口口口① |①---|
口口口② |②---|
口口口③ |③---|
口口口④ |④---|
81
口口口口 |①---|
口③③口 |----|
口②②口 |②---|
口口①口 |③---|
82
口口口① |①---|
口口口② |②---|
口口口③ |③---|
口口口④ |④---|
83
口口④口 |①---|
口口③口 |②---|
口口②口 |③---|
口口①口 |④---|
84
①口口口 |①---|
②口口口 |②---|
③口口口 |③---|
④口口口 |④---|
85
口④口口 |①-②-|
口口③口 |③-④-|
口②口口 |----|
口口①口 |----|


不確定度: 0

最終更新:2013年05月28日 15:15