maximum the hormone
マキシマム ザ ホルモン

ADVANCED

Level: 7
BPM: 143-197
Notes: 675

BPM: 128
1
口口口口 |----|
口口口口 |----|
口口口口 |----|
口口口口 |----|

BPM在143附近飄忽不定
2
口口口口 |①---|
口口口口 |②---|
口口②口
口口口①

口口口④
口口口③
口口口口 |③-④-|
口口⑥⑤ |--⑤⑥|
3
口口口口 |①---|
口口口口 |②---|
口②口口
①口口口

④口口口
③口口口
口口口口 |③-④-|
⑤⑥口口 |--⑤⑥|
4
口口口口 |①---|
口口口口 |②---|
口口②口
口口口①

口口口④
口口口③
口口口口 |③-④-|
口口⑥⑤ |--⑤⑥|
5
④口口口 |①---|
③口口口 |②---|
口②口口 |③-④-|
①口口口 |----|
6
⑦口⑤⑦ |①---|
⑥④口⑥ |②---|
②口③② |③④⑤-|
①①①① |⑥-⑦-|
7
⑦⑤口⑦ |①---|
⑥口④⑥ |②---|
②③口② |③④⑤-|
①①①① |⑥-⑦-|
8
⑥口⑤⑥ |①---|
⑦④口⑦ |②---|
②口③② |③④⑤-|
①①①① |⑥-⑦-|
9
口口口口 |①---|
口口口口 |----|
①口口① |----|
口口口口 |----|
10
⑦口⑤⑦ |①---|
⑥④口⑥ |②---|
②口③② |③④⑤-|
①①①① |⑥-⑦-|
11
⑦⑤口⑦ |①---|
⑥口④⑥ |②---|
②③口② |③④⑤-|
①①①① |⑥-⑦-|
12
⑥口⑤⑥ |①---|
⑦④口⑦ |②---|
②口③② |③④⑤-|
①①①① |⑥-⑦-|
13
口口口口 |①---|
口口口口 |----|
①口口① |----|
口口口口 |----|
14
⑦口⑤⑦ |①---|
⑥④口⑥ |②---|
②口③② |③④⑤-|
口①①口 |⑥-⑦-|
15
⑦⑤口⑦ |①---|
⑥口④⑥ |②---|
②③口② |③④⑤-|
口①①口 |⑥-⑦-|
16
⑥口⑤⑥ |①---|
⑦④口⑦ |②---|
②口③② |③④⑤-|
口①①口 |⑥-⑦-|
17
口口口口 |①---|
口口口口 |----|
①口口① |----|
口口口口 |----|
18
⑦口⑤⑦ |①---|
⑥④口⑥ |②---|
②口③② |③④⑤-|
①①①① |⑥-⑦-|
19
⑦⑤口⑦ |①---|
⑥口④⑥ |②---|
②③口② |③④⑤-|
①①①① |⑥-⑦-|
20
⑦口⑤⑦ |①---|
⑥④口⑥ |②---|
②口③② |③④⑤-|
①①①① |⑥-⑦-|
21
口口口口 |①---|
口口口口 |----|
①口口① |----|
口①①口 |----|

BPM: 153
22
①①①① |①--②|
②②②② |--③-|
③③③③ |④-⑤-|
⑤⑦⑥④ |⑥-⑦-|
23
①①①① |①--②|
②②②② |--③-|
③③③③ |④-⑤-|
⑤⑦⑥④ |⑥-⑦-|
24
①①①① |①--②|
②②②② |--③-|
③③③③ |④-⑤-|
⑤⑦⑥④ |⑥-⑦-|
25
口②②口 |①--②|
①口口① |--③-|
口④③口 |④---|
⑤口口⑤ |⑤---|
26
①①①① |①--②|
②②②② |--③-|
③③③③ |④-⑤-|
⑤⑦⑥④ |⑥-⑦-|
27
①①①① |①--②|
②②②② |--③-|
③③③③ |④-⑤-|
⑤⑦⑥④ |⑥-⑦-|
28
①①①① |①--②|
②②②② |--③-|
③③③③ |④-⑤-|
⑤⑦⑥④ |⑥-⑦-|
29
口③③口 |①--②|
①④④① |--③-|
⑥②②⑥ |④-⑤-|
⑤口口⑤ |⑥---|

BPM在197附近飄忽不定
30
①口口① |①---|
口口口口 |----|
口口口口 |----|
口口口口 |----|
31
口口口口 |----|
口口口口 |----|
①②③口 |--①-|
口口口口 |②-③-|
32
口口③② |①---|
口口③② |②-③-|
口口口① |----|
④④口口 |④---|
33
口口③② |①---|
口口③② |②-③-|
口口口口 |----|
④④①① |④---|
34
④⑦⑥⑤ |①-②-|
①②③口 |③-④-|
①②③口 |--⑤-|
口口口口 |⑥-⑦-|
35
口口口口 |①-②-|
①②③④ |③-④-|
口口口④ |----|
口口口口 |----|
36
④⑦⑥⑤ |①-②-|
①②③口 |③-④-|
①②③口 |--⑤-|
口口口口 |⑥-⑦-|
37
口口口口 |①---|
口①口口 |----|
口口口口 |----|
口①口口 |----|
38
⑤⑥⑦④ |①-②-|
口③②① |③-④-|
口③②① |--⑤-|
口口口口 |⑥-⑦-|
39
口口口口 |①-②-|
④③②① |③-④-|
④口口口 |----|
口口口口 |----|
40
⑤⑥⑦④ |①-②-|
口③②① |③-④-|
口③②① |--⑤-|
口口口口 |⑥-⑦-|
41
口口口口 |①---|
口口①口 |----|
口口口口 |----|
口口①口 |----|
42
①②③④ |①-②-|
口口口口 |③-④-|
口⑦⑦口 |--⑤-|
⑤⑥⑥⑤ |⑥-⑦-|
43
口④④口 |①-②-|
②③③② |③-④-|
①口口① |--⑤-|
口⑦⑥⑤ |⑥-⑦-|
44
口③口③ |①---|
口口口口 |②-③-|
②①②①
口口口口

⑤口⑤口
④⑥④⑥
口⑦口⑦ |④-⑤-|
口口口口 |⑥-⑦-|
45
口口口口 |①---|
口口口口 |----|
口口口口 |----|
口①口① |----|
46
①②③④ |①-②-|
口口口口 |③-④-|
口⑦⑦口 |--⑤-|
⑤⑥⑥⑤ |⑥-⑦-|
47
口④④口 |①-②-|
②③③② |③-④-|
①口口① |--⑤-|
口⑦⑥⑤ |⑥-⑦-|
48
口③口③ |①---|
口口口口 |②-③-|
②①②①
口口口口

⑤口⑤口
④⑥④⑥
口⑦口⑦ |④-⑤-|
口口口口 |⑥-⑦-|
49
口口口口 |①---|
口口口口 |----|
口口口口 |----|
口①口① |----|
50
口④④③ |①---|
口口口③ |②---|
口口口② |③---|
口①①② |④---|
51
①口口口 |①---|
①④④口 |②---|
②④④口 |③---|
②③③口 |④---|
52
①②②③ |①---|
①口口③ |②---|
口口口④ |③---|
口口口④ |④---|
53
口口口口 |①---|
口口口口 |----|
口①①口 |----|
口①①口 |----|
54
③④④口 |①---|
③口口口 |②---|
②口口口 |③---|
②①①口 |④---|
55
口口口① |①---|
口④④① |②---|
口④④② |③---|
口③③② |④---|
56
③②②① |①---|
③口口① |②---|
④口口口 |③---|
④口口口 |④---|
57
口口口口 |①---|
口口口口 |----|
口①①口 |----|
口①①口 |----|
58
口口口口 |①---|
口口①① |----|
口口口口 |----|
口口口口 |----|
59
口口口口 |①---|
①①口口 |----|
口口口口 |----|
口口口口 |----|
60
口口口口 |①---|
口口口口 |----|
口口①① |----|
口口口口 |----|
61
口口口口 |①---|
口口口口 |----|
①①口口 |----|
口口口口 |----|
62
口口口口 |①---|
口口口口 |②---|
④③②① |③---|
④③②① |④---|
63
①②③④ |①---|
①②③④ |②---|
口口口口 |③---|
口口口口 |④---|
64
口口口口 |①---|
口口口口 |②---|
④③②① |③---|
④③②① |④---|
65
①②③③ |①---|
①②③③ |②---|
口口口口 |③---|
口口口口 |----|
66
口④④③ |①---|
口口口③ |②---|
口口口② |③---|
口①①② |④---|
67
①口口口 |①---|
①④④口 |②---|
②④④口 |③---|
②③③口 |④---|
68
①②②③ |①---|
①口口③ |②---|
口口口④ |③---|
口口口④ |④---|
69
口口口口 |①---|
口口口口 |----|
口①①口 |----|
口①①口 |----|
70
③④④口 |①---|
③口口口 |②---|
②口口口 |③---|
②①①口 |④---|
71
口口口① |①---|
口④④① |②---|
口④④② |③---|
口③③② |④---|
72
③②②① |①---|
③口口① |②---|
④口口口 |③---|
④口口口 |④---|
73
口口口口 |①---|
口口口口 |----|
口①①口 |----|
口①①口 |----|
74
口口口口 |①---|
口口口口 |----|
口口口口 |----|
口①①口 |----|
75
口口口口 |①---|
口口口口 |----|
口口口口 |----|
口①①口 |----|
76
口口口口 |①---|
口口口口 |----|
口口口口 |----|
口①①口 |----|
77
口口口口 |①---|
口口口口 |----|
口口口口 |----|
口①①口 |----|
78
②④③① |①---|
口口口口 |②---|
①③④② |③---|
口口口口 |④---|
79
口口口口 |①---|
②④④① |②---|
口口口口 |③---|
①③③② |④---|
80
②④③① |①---|
口口口口 |②---|
①③④② |③---|
口口口口 |④---|
81
口口口口 |①---|
⑤④③② |----|
口口口口 |②-③-|
口①①口 |④-⑤-|
82
②④③① |①---|
口口口口 |②---|
①③④② |③---|
口口口口 |④---|
83
口口口口 |①---|
②③③① |②---|
口口口口 |③---|
①④④② |④---|
84
②④③① |①---|
口口口口 |②---|
①③④② |③---|
口口口口 |④---|
85
口口口口 |①-②-|
①②③④ |③-④-|
口口口口 |----|
口口口口 |----|
86
口口口口 |----|
口口口口 |----|
口口口口 |----|
口口口口 |----|

BPM: 163
87
口口③口 |--①②|
口②口口 |③---|
口口①口 |----|
口口口口 |----|


不確定度: 0

最終更新:2013年05月28日 15:14