猫がニャ~て、犬がワンッ!
neco眠る with 二階堂和美

BASIC

Level: 3
BPM: 212
Notes: 172

BPM在212附近飄忽不定
1
口口口口 |----|
口口口口 |----|
口口口口 |----|
口口口口 |----|
2
口口口口 |①---|
口口口口 |----|
①口口口 |----|
口口口口 |----|
3
口①①口 |①---|
口口口口 |----|
口口口口 |----|
口口口口 |----|
4
口口口口 |①---|
口口口口 |----|
口口口① |----|
口口口口 |----|
5
口①①口 |①---|
口口口口 |----|
口口口口 |----|
口口口口 |----|
6
口口口口 |①---|
口口口口 |----|
①口口口 |----|
口口口口 |----|
7
口①①口 |①---|
口口口口 |----|
口口口口 |----|
口口口口 |----|
8
口口口口 |①---|
口口口口 |----|
口口口① |----|
口口口口 |----|
9
口①①口 |①---|
口口口口 |----|
口口口口 |----|
口口口口 |----|
10
口口口口 |①---|
口口口口 |----|
口①口口 |----|
口口口口 |----|
11
口①①口 |①---|
口口口口 |----|
口口口口 |----|
口口口口 |----|
12
口口口口 |①---|
口口口口 |----|
口口①口 |----|
口口口口 |----|
13
口①①口 |①---|
口口口口 |----|
口口口口 |----|
口口口口 |----|
14
口口口口 |①---|
口口口口 |----|
口①口口 |----|
口口口口 |----|
15
口①①口 |①---|
口口口口 |----|
口口口口 |----|
口口口口 |----|
16
口口口口 |①---|
口口口口 |----|
口口①口 |----|
口口口口 |----|
17
口口口口 |①---|
口③④口 |②---|
口①②口 |③---|
口口口口 |④---|
18
口口口口 |①---|
口口口口 |----|
口口口口 |----|
口①口口 |----|
19
口口口口 |①---|
口口口口 |----|
口口口口 |----|
口口①口 |----|
20
口口口口 |①---|
口口②口 |----|
口①口口 |②---|
口口口口 |----|
21
口口口口 |①---|
口口口口 |----|
口口口① |----|
口口口口 |----|
22
口口口口 |①---|
①口口口 |----|
①口口口 |----|
口口口口 |----|
23
口口口口 |①---|
口口口① |----|
口口口口 |②---|
口口②口 |----|
24
口口口口 |①---|
口口①口 |----|
口口口口 |----|
口口口口 |----|
25
口口口口 |----|
口口口口 |----|
口口口口 |----|
口口口口 |----|
26
口口口口 |①---|
口口口口 |----|
口口口口 |----|
口①口口 |----|
27
口口口口 |①---|
口口口口 |----|
口口口口 |----|
口口①口 |----|
28
口口口口 |①---|
口口②口 |----|
口①口口 |②---|
口口口口 |----|
29
口口口口 |①---|
口口口口 |----|
口口口① |----|
口口口口 |----|
30
口口口口 |①---|
①口口口 |----|
①口口口 |----|
口口口口 |----|
31
口口口口 |①---|
口口口① |----|
口口口口 |②---|
口口②口 |----|
32
口口口口 |①---|
①口口口 |----|
口②口口 |②---|
口口口口 |----|
33
口口口口 |①---|
口口①口 |----|
口口口口 |----|
口口口口 |----|
34
口口口口 |①---|
口口口口 |----|
口①口口 |----|
口口口口 |----|
35
①口①口 |①---|
口口口口 |----|
口口口口 |----|
口口口口 |----|
36
口口口口 |①---|
口口②口 |----|
口①口口 |②---|
口口口口 |----|
37
口口口口 |①---|
口口口口 |----|
口口口① |----|
口口口口 |----|
38
口口口口 |①---|
口口口口 |----|
口口口口 |----|
口①口口 |----|
39
口口口口 |①---|
口口口口 |----|
口①口① |----|
口口口口 |----|
40
口口口口 |①---|
口口口口 |----|
口②口口 |②---|
口口①口 |----|
41
口口口口 |①---|
口口口口 |----|
口口口口 |----|
①口口口 |----|
42
口口口口 |①---|
②口口口 |----|
①口口口 |②---|
口口口口 |----|
43
口口口口 |①---|
口口②口 |----|
口口①口 |②---|
口口口口 |----|
44
口口口口 |①---|
口②口口 |----|
口①口口 |②---|
口口口口 |----|
45
口口口口 |①---|
口口口② |----|
口口口① |②---|
口口口口 |----|
46
口口口口 |①---|
口口口口 |----|
口②口口 |②---|
口①①口 |----|
47
口②口口 |①---|
口口①口 |----|
口口口口 |②---|
口口口口 |----|
48
口口口口 |①---|
口口口口 |----|
口①①口 |----|
口口口口 |----|
49
口口口口 |----|
①②口口 |----|
口口口口 |①---|
口口口口 |②---|
50
口口口口 |①---|
口口①口 |----|
口口口口 |----|
口口口口 |----|
51
口口口口 |----|
口口口口 |----|
口①①口 |①---|
口口口口 |----|
52
口口口口 |①---|
口口口口 |----|
口口口口 |----|
口①①口 |----|
53
口口口口 |----|
口口②① |----|
口口口口 |①---|
口口口口 |②---|
54
口口口口 |①---|
口①口口 |----|
口口口口 |----|
口口口口 |----|
55
口口口口 |----|
口口口口 |----|
口①①口 |①---|
口口口口 |----|
56
口口口口 |①---|
口口口口 |----|
口口口口 |----|
口①①口 |----|
57
口口口口 |----|
①②口口 |----|
口口口口 |①---|
口口口口 |②---|
58
口口口口 |①---|
口口①口 |----|
口口口口 |----|
口口口口 |----|
59
口口口口 |----|
口口口口 |----|
口①①口 |①---|
口口口口 |----|
60
口口口口 |①---|
口口口口 |----|
口口口口 |----|
口①①口 |----|
61
口口口口 |----|
口口②① |----|
口口口口 |①---|
口口口口 |②---|
62
口口口口 |①---|
口①口口 |----|
口口口口 |----|
口口口口 |----|
63
口口口口 |----|
口口口口 |----|
口①①口 |①---|
口口口口 |----|
64
口口口口 |①---|
口口口口 |----|
口口口口 |----|
口①①口 |----|
65
口口口口 |①---|
口②④口 |②---|
口①③口 |③---|
口口口口 |④---|
66
①②③④ |①---|
口口口口 |②---|
口口口口 |③---|
口口口口 |④---|
67
口口口口 |①---|
口①②口 |②---|
口③④口 |③---|
口口口口 |④---|
68
口口口口 |①---|
口口口口 |②---|
口口口口 |③---|
④③②① |④---|
69
口口口口 |①---|
口③④口 |②---|
口①②口 |③---|
口口口口 |④---|
70
①②③④ |①---|
口口口口 |②---|
口口口口 |③---|
口口口口 |④---|
71
口口口口 |①---|
口①②口 |②---|
口③④口 |③---|
口口口口 |④---|
72
口口口口 |①---|
口口口口 |②---|
口口口口 |③---|
④③②① |④---|
73
口口口口 |①---|
口②③口 |----|
口①①口 |②---|
口口口口 |③---|
74
①②③④ |①---|
口口口口 |②---|
口口口口 |③---|
口口口口 |④---|
75
口口口口 |①---|
口①②口 |②---|
口③④口 |③---|
口口口口 |④---|
76
口口口口 |①---|
口口口口 |②---|
口口口口 |③---|
④③②① |④---|
77
口口口口 |①---|
口③④口 |②---|
口①②口 |③---|
口口口口 |④---|
78
①②③④ |①---|
口口口口 |②---|
口口口口 |③---|
口口口口 |④---|
79
口口口口 |①---|
口①②口 |②---|
口③④口 |③---|
口口口口 |④---|
80
口口口口 |①---|
口口口口 |②---|
口口口口 |③---|
④③②① |④---|

BPM: 192
81
口③③口 |①---|
口②②口 |②---|
①口口口 |③---|
口口口口 |----|


不確定度: 0

最終更新:2013年05月28日 15:13