Universe Universe
avengers in sci-fi

BASIC

Level: 4
BPM: 180
Notes: 260

BPM: 177
1
口口口口 |----|
口口口口 |----|
口口口口 |----|
口口口口 |----|

BPM: 172
2
口口口口 |①---|
口①口口 |--②-|
口②②口 |----|
口口口口 |----|

BPM: 178
3
口口口口 |①---|
口口③口 |--②-|
口口②口 |----|
口口①口 |③---|

BPM: 176
4
口①口口 |①---|
口②口口 |--②-|
口③口口 |----|
口口口口 |③---|

BPM: 180
5
口口口口 |①---|
口口③口 |--②-|
口口②口 |----|
口口①口 |③---|

BPM: 178
6
口口口口 |①---|
口①口口 |--②-|
口②②口 |----|
口口口口 |----|
7
口口口口 |①---|
口口③口 |--②-|
口口②口 |----|
口口①口 |③---|

BPM: 174
8
口①①口 |①---|
②口口② |--②-|
③口口③ |----|
口口口口 |③---|

BPM: 184
9
口口口口 |①---|
口口口口 |②---|
口①②口 |③---|
口③④口 |④---|

BPM: 180
10
口④③口 |①---|
口①②口 |②---|
口口口口 |③---|
口口口口 |④---|
11
①口口③ |①---|
②口口④ |②---|
口口口口 |③---|
口口口口 |④---|
12
口口口口 |①---|
口口口口 |②---|
④③②① |③---|
口口口口 |④---|
13
口口口口 |①---|
口口口口 |②---|
口口口口 |③---|
①②③④ |④---|
14
口③④口 |①---|
口②①口 |②---|
口口口口 |③---|
口口口口 |④---|
15
③口口① |①---|
④口口② |②---|
口口口口 |③---|
口口口口 |④---|
16
口口口口 |①---|
口口口口 |②---|
①②③④ |③---|
口口口口 |④---|
17
口口口口 |①---|
④③②① |②---|
口口口口 |③---|
口口口口 |④---|
18
口④口口 |①---|
口③口口 |②---|
口②口口 |③---|
口①口口 |④---|
19
口口④口 |①---|
口口③口 |②---|
口口②口 |③---|
口口①口 |④---|
20
口口口口 |①---|
口口口口 |②---|
②①③④ |③---|
口口口口 |④---|
21
口口口口 |①---|
口口口口 |②---|
口口口口 |③---|
②①③④ |④---|
22
口④口口 |①---|
口③口口 |②---|
口②口口 |③---|
口①口口 |④---|
23
口口④口 |①---|
口口③口 |②---|
口口②口 |③---|
口口①口 |④---|
24
口口口口 |①---|
口口口口 |②---|
②①③④ |③---|
口口口口 |④---|
25
口口口口 |①---|
口口口口 |②---|
口口口口 |③---|
①②③④ |④---|
26
口口口口 |①---|
口口②口 |----|
口①口口 |----|
口口口口 |②---|
27
口②①口 |①---|
口口口口 |----|
口口口口 |②---|
口口口口 |----|
28
①口口口 |①---|
②口口口 |----|
口口口口 |②---|
口口口口 |----|
29
口口口口 |①---|
口口口口 |----|
①口口口 |②---|
②口口口 |----|
30
口口口口 |①---|
口②口口 |----|
口口①口 |----|
口口口口 |②---|
31
口①②口 |①---|
口口口口 |----|
口口口口 |②---|
口口口口 |----|
32
口口口① |①---|
口口口② |----|
口口口口 |②---|
口口口口 |----|
33
口口口口 |①---|
口口口口 |②---|
口口口口 |③---|
④③②① |④---|
34
口口口口 |①---|
口口②口 |----|
口①口口 |----|
口口口口 |②---|
35
口②①口 |①---|
口口口口 |----|
口口口口 |②---|
口口口口 |----|
36
①口口口 |①---|
②口口口 |----|
口口口口 |②---|
口口口口 |----|
37
口口口口 |①---|
口口口口 |----|
①口口口 |②---|
②口口口 |----|
38
口口口口 |①---|
口②口口 |----|
口口①口 |----|
口口口口 |②---|
39
口①②口 |①---|
口口口口 |----|
口口口口 |②---|
口口口口 |----|
40
口口口① |①---|
口口口② |----|
口口口口 |②---|
口口口口 |----|
41
口口口口 |①---|
口口口口 |②---|
口口口口 |③---|
④③②① |④---|
42
口口口口 |①---|
口口③① |②---|
口口④② |③---|
口口口口 |④---|
43
口口口口 |①---|
③①口口 |②---|
④②口口 |③---|
口口口口 |④---|
44
口口口口 |①---|
口口口口 |----|
口口口口 |②---|
口①②口 |----|
45
口口口口 |①---|
口口口口 |----|
口口口口 |②---|
①口口② |----|
46
口口口口 |①---|
①③口口 |②---|
②④口口 |③---|
口口口口 |④---|
47
口口口口 |①---|
口口①③ |②---|
口口②④ |③---|
口口口口 |④---|
48
口口口口 |①---|
口口口口 |----|
口口口口 |②---|
口②①口 |----|
49
口口口口 |①---|
口口口口 |----|
口口口口 |②---|
②口口① |----|
50
口口口口 |①---|
口口口口 |②---|
④③②① |③---|
口口口口 |④---|
51
口④③口 |①---|
口①②口 |②---|
口口口口 |③---|
口口口口 |④---|
52
①口口③ |①---|
②口口④ |②---|
口口口口 |③---|
口口口口 |④---|
53
口口口口 |①---|
口口口口 |②---|
④③②① |③---|
口口口口 |④---|
54
口口口口 |①---|
口口口口 |②---|
口口口口 |③---|
①②③④ |④---|
55
口③④口 |①---|
口②①口 |②---|
口口口口 |③---|
口口口口 |④---|
56
③口口① |①---|
④口口② |②---|
口口口口 |③---|
口口口口 |④---|
57
口口口口 |①---|
口口口口 |②---|
①②③④ |③---|
口口口口 |④---|
58
口口口口 |①---|
④③②① |②---|
口口口口 |③---|
口口口口 |④---|
59
口④口口 |①---|
口③口口 |②---|
口②口口 |③---|
口①口口 |④---|
60
口口④口 |①---|
口口③口 |②---|
口口②口 |③---|
口口①口 |④---|
61
口口口口 |①---|
口口口口 |②---|
②①③④ |③---|
口口口口 |④---|
62
口口口口 |①---|
口口口口 |②---|
口口口口 |③---|
②①③④ |④---|
63
口④口口 |①---|
口③口口 |②---|
口②口口 |③---|
口①口口 |④---|
64
口口④口 |①---|
口口③口 |②---|
口口②口 |③---|
口口①口 |④---|
65
口口口口 |①---|
口口口口 |②---|
②①③④ |③---|
口口口口 |④---|
66
口口口口 |①---|
口口口口 |②---|
口口口口 |③---|
①②③④ |④---|
67
口口口口 |①---|
口口②口 |----|
口①口口 |----|
口口口口 |②---|
68
口②①口 |①---|
口口口口 |----|
口口口口 |②---|
口口口口 |----|
69
①口口口 |①---|
②口口口 |----|
口口口口 |②---|
口口口口 |----|
70
口口口口 |①---|
口口口口 |----|
①口口口 |②---|
②口口口 |----|
71
口口口口 |①---|
口②口口 |----|
口口①口 |----|
口口口口 |②---|
72
口①②口 |①---|
口口口口 |----|
口口口口 |②---|
口口口口 |----|
73
口口口① |①---|
口口口② |----|
口口口口 |②---|
口口口口 |----|
74
口口口口 |①---|
口口口口 |②---|
口口口口 |③---|
④③②① |④---|
75
口口口口 |①---|
口口②口 |----|
口①口口 |----|
口口口口 |②---|
76
口②①口 |①---|
口口口口 |----|
口口口口 |②---|
口口口口 |----|
77
①口口口 |①---|
②口口口 |----|
口口口口 |②---|
口口口口 |----|
78
口口口口 |①---|
口口口口 |----|
①口口口 |②---|
②口口口 |----|
79
口口口口 |①---|
口②口口 |----|
口口①口 |----|
口口口口 |②---|
80
口①②口 |①---|
口口口口 |----|
口口口口 |②---|
口口口口 |----|
81
口口口① |①---|
口口口② |----|
口口口口 |②---|
口口口口 |----|
82
口口口口 |①---|
口口口口 |②---|
口口口口 |③---|
④③②① |④---|
83
口口口口 |①---|
口③③口 |--②-|
口①②口 |----|
口口口口 |③---|


不確定度: 0

最終更新:2013年05月28日 15:12