Universe Universe
avengers in sci-fi

ADVANCED

Level: 7
BPM: 180
Notes: 459

BPM: 177
1
口口口口 |----|
口口口口 |----|
口口口口 |----|
口口口口 |----|

BPM: 172
2
②②②② |①---|
①口口① |--②-|
口④③口 |----|
口⑥⑤口 |③④⑤⑥|

BPM: 178
3
口口口口 |①---|
口②②口 |--②-|
口③③① |----|
口口口① |③---|

BPM: 176
4
①口口① |①---|
②③③② |--②-|
②③③② |----|
口口口口 |③---|

BPM: 180
5
口口口口 |①---|
口口口口 |--②-|
②口口②
口①①口

口口口口
口口口口
口③④口 |----|
口⑤⑥口 |③④⑤⑥|

BPM: 178
6
②②②② |①---|
①口口① |--②-|
口③④口 |----|
口⑤⑥口 |③④⑤⑥|
7
口口口口 |①---|
口②②口 |--②-|
①③③口 |----|
①口口口 |③---|

BPM: 174
8
①口口① |①---|
②③③② |--②-|
②③③② |----|
口口口口 |③---|

BPM: 184
9
口①①口 |①---|
②口口② |②---|
③口口③ |③---|
口④④口 |④---|

BPM: 180
10
①⑥⑥口 |①-②-|
⑤口口② |③---|
口③③④ |④-⑤-|
口口口口 |⑥---|
11
口口口口 |①---|
⑤口口口 |②---|
⑤口口口 |③-④-|
①③④② |⑤---|
12
①口口① |①---|
口②②口 |----|
口口口口 |②---|
口口口口 |----|
13
口①口口 |①---|
口口口口 |----|
②口口① |②---|
口口②口 |----|
14
①⑥⑥口 |①-②-|
⑤口口② |③---|
口③③④ |④-⑤-|
口口口口 |⑥---|
15
口口口口 |①---|
口口口⑤ |②---|
口口口⑤ |③-④-|
②④③① |⑤---|
16
①口口① |①---|
口②②口 |----|
口口口口 |②---|
口口口口 |----|
17
口口④③ |①---|
②口口口 |②---|
口口口口 |③---|
口①口口 |④---|
18
①⑥⑥口 |①-②-|
⑤口口② |③---|
口③③④ |④-⑤-|
口口口口 |⑥---|
19
口口口口 |①---|
⑤口口口 |②---|
⑤口口口 |③-④-|
①③④② |⑤---|
20
①口口① |①---|
口口口口 |----|
口口口口 |②---|
②口口② |----|
21
口口口口 |①---|
口口①口 |----|
②口口① |②---|
口②口口 |----|
22
①⑥⑥口 |①-②-|
⑤口口② |③---|
口③③④ |④-⑤-|
口口口口 |⑥---|
23
口口口口 |①---|
口口口⑤ |②---|
口口口⑤ |③-④-|
②④③① |⑤---|
24
①口口① |①---|
口②②口 |----|
口口口口 |②---|
口口口口 |----|
25
①②③④ |①---|
口口口口 |②---|
④口口① |③---|
口③②口 |④---|
26
口口口口 |①---|
口③口③ |--②-|
口①口口 |----|
口口②口 |③---|
27
②④①口 |--①-|
口口③⑤ |--②-|
口口口口 |③-④-|
口口口口 |⑤---|
28
口口口口 |①---|
口②口口 |--②-|
①口口口 |----|
③口口③ |③---|
29
③口口③ |①---|
口②②口 |----|
口①①口 |②---|
口口口口 |③---|
30
口口口口 |①---|
口③口③ |--②-|
口①口口 |----|
口口②口 |③---|
31
②口①口 |--①-|
口口④口 |--②-|
口口③口 |③---|
口口口口 |--④-|
32
口口口口 |--①-|
口口口口 |②---|
口①口② |----|
③口口③ |③---|
33
③口口③ |①---|
口②②口 |----|
口①①口 |②---|
口口口口 |③---|
34
口口口口 |①---|
口③口③ |--②-|
口①口口 |----|
口口②口 |③---|
35
②④①口 |--①-|
口口③⑤ |--②-|
口口口口 |③-④-|
口口口口 |⑤---|
36
口口口口 |①---|
口②口口 |--②-|
①口口口 |----|
③口口③ |③---|
37
③口口③ |①---|
口②②口 |----|
口①①口 |②---|
口口口口 |③---|
38
口口口口 |①---|
口③口③ |--②-|
口①口口 |----|
口口②口 |③---|
39
②口①口 |--①-|
口④⑤口 |--②-|
口口③口 |③---|
口口口口 |④-⑤-|
40
口口口口 |--①-|
口口口口 |②---|
口①口② |----|
③口口③ |③---|
41
口③③口 |①---|
口②②口 |----|
口①①口 |②---|
口口口口 |③---|
42
①口口口 |①---|
①③口口 |②---|
口③②口 |③---|
口口口④ |④---|
43
口④口口 |①---|
口口③口 |②---|
口口口① |③---|
口②口口 |④---|
44
口口口口 |①---|
口③③口 |②---|
①②口口 |③---|
口口口口 |----|
45
口口口口 |①---|
口口口口 |②---|
①口口④ |③---|
口②③口 |④---|
46
口口③① |①---|
口口③① |②---|
口②口口 |③---|
④口口口 |④---|
47
口口④口 |①---|
口③口口 |②---|
①口口口 |③---|
口口②口 |④---|
48
口口口口 |①---|
口③③口 |②---|
口口②① |③---|
口口口口 |----|
49
口口口口 |①---|
口口口口 |②---|
④口口① |③---|
口③②口 |④---|
50
①⑨⑩① |①---|
⑦②②⑧ |②---|
⑤口口⑥ |③④⑤⑥|
③口口④ |⑦⑧⑨⑩|
51
①⑥⑥② |①-②-|
⑤口口口 |③---|
口③③④ |④-⑤-|
口口口口 |⑥---|
52
口口口口 |①---|
⑤口口口 |②---|
⑤口口口 |③-④-|
①③④② |⑤---|
53
①口口① |①---|
口②②口 |----|
口口口口 |②---|
口口口口 |----|
54
口①口口 |①---|
口口口口 |----|
②口口① |②---|
口口②口 |----|
55
①⑥⑥口 |①-②-|
⑤口口② |③---|
口③③④ |④-⑤-|
口口口口 |⑥---|
56
口口口口 |①---|
口口口⑤ |②---|
口口口⑤ |③-④-|
②④③① |⑤---|
57
①口口① |①---|
口②②口 |----|
口口口口 |②---|
口口口口 |----|
58
口口④③ |①---|
②口口口 |②---|
口口口口 |③---|
口①口口 |④---|
59
①⑥⑥口 |①-②-|
⑤口口② |③---|
口③③④ |④-⑤-|
口口口口 |⑥---|
60
口口口口 |①---|
⑤口口口 |②---|
⑤口口口 |③-④-|
①③④② |⑤---|
61
①口口① |①---|
口口口口 |----|
口口口口 |②---|
②口口② |----|
62
口口口口 |①---|
口口①口 |----|
②口口① |②---|
口②口口 |----|
63
①⑥⑥口 |①-②-|
⑤口口② |③---|
口③③④ |④-⑤-|
口口口口 |⑥---|
64
口口口口 |①---|
口口口⑤ |②---|
口口口⑤ |③-④-|
②④③① |⑤---|
65
①口口① |①---|
口②②口 |----|
口口口口 |②---|
口口口口 |----|
66
①②③④ |①---|
口口口口 |②---|
④口口① |③---|
口③②口 |④---|
67
口口口口 |①---|
口③口③ |--②-|
口①口口 |----|
口口②口 |③---|
68
②④①口 |--①-|
口口③⑤ |--②-|
口口口口 |③-④-|
口口口口 |⑤---|
69
口口口口 |①---|
口②口口 |--②-|
①口口口 |----|
③口口③ |③---|
70
口口口口 |①---|
口口口口 |----|
口①①口
口口口口

③口口③
口②②口
口口④口 |②---|
口口口口 |③-④-|
71
口口口口 |①---|
口③口③ |--②-|
口①口口 |----|
口口②口 |③---|
72
②口①口 |--①-|
④口⑤口 |--②-|
口口③口 |③---|
口口口口 |④-⑤-|
73
口口口口 |--①-|
口口口口 |②---|
口①口② |----|
③口口③ |③---|
74
③口口③ |①---|
口②②口 |----|
口①①口 |②---|
口口口口 |③---|
75
口口口口 |①---|
口③口③ |--②-|
口①口口 |----|
口口②口 |③---|
76
②④①口 |--①-|
口口③⑤ |--②-|
口口口口 |③-④-|
口口口口 |⑤---|
77
口口口口 |①---|
口②口口 |--②-|
①口口口 |----|
③口口③ |③---|
78
③口口③ |①---|
口②②口 |----|
口①①口 |②---|
口口口口 |③---|
79
口口口口 |①---|
口③口③ |--②-|
口①口口 |----|
口口②口 |③---|
80
②口①口 |--①-|
④口⑤口 |--②-|
口⑥③口 |③-④-|
口口口口 |⑤-⑥-|
81
口口口口 |--①-|
口口口口 |②---|
口口口口 |----|
③②①③ |③---|
82
口③③口 |①---|
口②②口 |----|
口①①口 |②---|
口口口口 |③---|
83
②③③② |①---|
口口口口 |--②-|
口①①口 |----|
口口口口 |③---|


不確定度: 0

最終更新:2013年05月28日 15:12