ESCAPE
Moon Child

BASIC

Level: 4
BPM: 165
Notes: 195

全程BPM在165附近飄忽不定
1
口口口口 |----|
口口口口 |----|
口口口口 |----|
口口口口 |----|
2
口口口口 |①---|
口①口口 |----|
口口口口 |----|
口口口口 |----|
3
口口口口 |①---|
口口①口 |----|
口口口口 |----|
口口口口 |----|
4
①口口口 |①---|
口口口口 |----|
口口口口 |----|
口口口口 |----|
5
口口口① |①---|
口口口口 |----|
口口口口 |----|
口口口口 |----|
6
口口口口 |①---|
口口口口 |----|
①②口口 |②---|
口口口口 |----|
7
口口口口 |①---|
口口口口 |----|
口口①② |②---|
口口口口 |----|
8
口口口口 |①---|
口口②① |----|
口口口口 |②---|
口口口口 |----|
9
口口口口 |①---|
②①口口 |----|
口口口口 |②---|
口口口口 |----|
10
口口口口 |①---|
口口口口 |----|
①②口口 |②---|
口口口口 |----|
11
口口口口 |①---|
口口口口 |----|
口口①② |②---|
口口口口 |----|
12
口口口口 |①---|
口口②① |----|
口口口口 |②---|
口口口口 |----|
13
口口口口 |①---|
②①口口 |----|
口口口口 |②---|
口口口口 |----|
14
①②③④ |①---|
口口口口 |②---|
口口口口 |③---|
口口口口 |④---|
15
口口口口 |①---|
④③②① |②---|
口口口口 |③---|
口口口口 |④---|
16
口口口口 |①---|
口口口口 |②---|
①②③④ |③---|
口口口口 |④---|
17
口口口口 |①---|
口口口口 |②---|
口口口口 |③---|
④③②① |④---|
18
口口口口 |①---|
口口口口 |----|
口①①口 |----|
口口口口 |----|
19
口口口口 |①---|
口①①口 |----|
口口口口 |----|
口口口口 |----|
20
①①①① |①---|
口口口口 |----|
口口口口 |----|
口口口口 |----|
21
口口口口 |----|
口口口口 |----|
口口口口 |----|
口口口口 |----|
22
①②③④ |①---|
口口口口 |②---|
口口口口 |③---|
口口口口 |④---|
23
口口口口 |①---|
④③②① |②---|
口口口口 |③---|
口口口口 |④---|
24
口口口口 |①---|
口口口口 |②---|
①②③④ |③---|
口口口口 |④---|
25
口口口口 |①---|
口口口口 |②---|
口口口口 |③---|
④③②① |④---|
26
口口口口 |①---|
口口口口 |----|
口①①口 |----|
口口口口 |----|
27
口口口口 |①---|
口①①口 |----|
口口口口 |----|
口口口口 |----|
28
①①①① |①---|
口口口口 |----|
口口口口 |----|
口口口口 |----|
29
口口口口 |----|
口②②口 |①---|
口①①口 |②---|
口口口口 |----|
30
①口口① |①---|
口口口口 |----|
口口口口 |----|
口口口口 |----|
31
口口口口 |----|
口②②口 |①---|
口①①口 |②---|
口口口口 |----|
32
①口口① |①---|
口口口口 |----|
口口口口 |----|
口口口口 |----|
33
口口口口 |----|
口①①口 |①---|
口②②口 |②---|
口口口口 |----|
34
②口口② |①---|
口口口口 |----|
口口口口 |②---|
①口口① |----|
35
口①口口 |①---|
口②口口 |②---|
口③口口 |③---|
口④口口 |④---|
36
口口口口 |①---|
②口口① |----|
口口口口 |②---|
口口口口 |----|
37
口①①口 |①---|
口③③口 |②---|
口②②口 |③---|
口口口口 |----|
38
①口口① |①---|
口口口口 |----|
口口口口 |----|
口口口口 |----|
39
口口口口 |----|
口②②口 |①---|
口①①口 |②---|
口口口口 |----|
40
①口口① |①---|
②口口口 |----|
口口口口 |----|
口口口口 |②---|
41
口口口口 |①---|
口口口① |----|
口②②口 |②---|
③口口③ |--③-|
42
①口口① |--①-|
口口口口 |----|
②口口口 |----|
口口口口 |②---|
43
口口④口 |①---|
口①口③ |②---|
口口②口 |③---|
口口口口 |④---|
44
口口口口 |①---|
口①①口 |--②-|
口②②口 |----|
口③③口 |③---|
45
①口口① |①---|
口口口口 |----|
口口口口 |----|
口口口口 |----|
46
口口口口 |①---|
①②③④ |②---|
口口口口 |③---|
口口口口 |④---|
47
口①①口 |①---|
口口口口 |----|
口口口口 |----|
口口口口 |----|
48
口口口口 |①---|
口口口口 |②---|
④③②① |③---|
口口口口 |④---|
49
口①①口 |①---|
口口口口 |----|
口口口口 |----|
口口口口 |----|
50
口口口口 |①---|
①②③④ |②---|
口口口口 |③---|
口口口口 |④---|
51
口口口口 |①---|
口口口口 |②---|
④③②① |③---|
口口口口 |④---|
52
②①①② |①---|
③口口③ |②---|
④口口④ |③---|
口口口口 |④---|
53
口②②口 |①---|
口口口口 |②---|
口③④口 |③---|
口①①口 |④---|
54
口口口口 |①---|
①②③④ |②---|
口口口口 |③---|
口口口口 |④---|
55
口①①口 |①---|
口口口口 |----|
口口口口 |----|
口口口口 |----|
56
口口口口 |①---|
口口口口 |②---|
④③②① |③---|
口口口口 |④---|
57
口①①口 |①---|
口口口口 |----|
口口口口 |----|
口口口口 |----|
58
口口口口 |①---|
①②③④ |②---|
口口口口 |③---|
口口口口 |④---|
59
口口口口 |①---|
口口口口 |②---|
④③②① |③---|
口口口口 |④---|
60
①口口② |①---|
①口口② |--②-|
③口口口 |----|
③口口口 |③---|
61
口口口口 |--①-|
口③③口 |----|
口②②① |②---|
口口口① |③---|


不確定度: 0

最終更新:2013年05月28日 15:12