Parachute
トクマルシューゴ

BASIC

Level: 4
BPM: 120
Notes: 225

BPM: 123
1
口口口口 |----|
口口口口 |----|
口口口口 |----|
口口口口 |----|
2
口口口口 |①---|
①①口口 |----|
口口口口
口口口口

BPM: 121

口口口口
口口口口
口③②口 |----|
口口口口 |②-③-|

BPM: 119
3
口口口口 |①---|
口口①① |----|
口②③口 |----|
口口口口 |②-③-|

BPM: 119.74
4
口口口口 |①---|
①①口口 |----|
口③②口 |----|
口口口口 |②-③-|
5
口口口口 |①---|
口口①① |----|
口②③口 |----|
口口口口 |②-③-|
6
口①②口 |①---|
③口口③ |②---|
口口口口 |③---|
口④④口 |--④-|
7
口口口口 |--①-|
口口口口 |----|
口①①口 |----|
口口口口 |----|
8
口①②口 |①---|
③口口③ |②---|
口④口口 |③---|
口口④口 |--④-|
9
口口口口 |--①-|
口口口口 |----|
口口①口 |----|
口①口口 |----|
10
口①②口 |①---|
口口口口 |②---|
③④④③ |③---|
口口口口 |--④-|
11
口口口口 |--①-|
口①①口 |----|
口口口口 |----|
口口口口 |----|
12
口①②口 |①---|
④口口口 |②---|
口③③口 |③---|
口口口口 |--④-|
13
口口口口 |--①-|
口口口① |----|
口口口口 |----|
口口口口 |----|
14
口口口口 |①---|
①②③① |----|
口口口口 |----|
口口口口 |②-③-|
15
口口口口 |----|
口口②口 |----|
口口口口 |①---|
口①①口 |--②-|
16
口口口口 |①---|
②①口② |----|
口口口口 |----|
口口口口 |--②-|
17
口①①口 |----|
口口口口 |----|
口②②口 |①---|
口口口口 |②---|
18
口口口口 |①---|
口①①口 |----|
口口口口
口口口口

口口口口
③④口口
口②口口 |②---|
口口口口 |③-④-|
19
口口口口 |--①-|
口口口① |----|
口口口口 |----|
口口口口 |----|
20
口口口口 |①---|
口①①口 |----|
口口口口
口口口口

口口口口
③④口口
口②口口 |②---|
口口口口 |③-④-|
21
②③口口 |--①-|
口口口① |----|
口口口口 |----|
口口口口 |②-③-|
22
口口口口 |--①-|
口口①口 |--②-|
口口②口 |----|
口口口口 |----|
23
口口口口 |①---|
①口口① |----|
口②③口 |②---|
口口口口 |③---|
24
④口口口 |①---|
③口口口 |②---|
②口口口 |③---|
①①口口 |④---|
25
口口口④ |①---|
口口口③ |②---|
口口口② |③---|
口口①① |④---|
26
口口口口 |①---|
口①②口 |----|
口②①口 |②---|
口口口口 |----|
27
口④④口 |①---|
口③③口 |②---|
口②②口 |③---|
口①①口 |④---|
28
④口口口 |①---|
③口口口 |②---|
②口口口 |③---|
①①口口 |④---|
29
口④④口 |①---|
口口口③ |②---|
口口口② |③---|
口口①① |④---|
30
①④④① |①---|
口口口口 |②---|
③②②③ |③---|
口口口口 |④---|
31
口口口口 |--①-|
口口口口 |----|
口①①口 |----|
口口口口 |----|
32
④口口口 |①---|
③口口口 |②---|
②口口口 |③---|
①①口口 |④---|
33
口口口④ |①---|
口口口③ |②---|
口口口② |③---|
口口①① |④---|
34
口口口口 |①---|
口①②口 |----|
口②①口 |②---|
口口口口 |----|
35
口④④口 |①---|
口③③口 |②---|
口②②口 |③---|
口①①口 |④---|
36
④口口口 |①---|
③口口口 |②---|
②口口口 |③---|
①①口口 |④---|
37
口④④口 |①---|
口口口③ |②---|
口口口② |③---|
口口①① |④---|
38
①④④① |①---|
口口口口 |②---|
③②②③ |③---|
口口口口 |④---|
39
口②②口 |--①-|
口口口口 |----|
口①①口 |----|
口口口口 |②---|
40
①④④① |①---|
口口口口 |②---|
③②②③ |③---|
口口口口 |④---|
41
口②②口 |--①-|
口①口口 |----|
口口①口 |----|
口口口口 |②---|
42
①④④① |①---|
口口口口 |②---|
③②②③ |③---|
口口口口 |④---|
43
口口口口 |--①-|
口口口口 |----|
口①①口 |----|
口口口口 |----|
44
口口口口 |①---|
口口口口 |----|
①口口① |----|
口口口口 |----|
45
口口口口 |--①-|
口③④⑤ |--②-|
口口口口 |--③-|
①口口② |④-⑤-|
46
口④口口 |①---|
口口③口 |----|
①②口① |--②-|
口口口口 |③-④-|
47
口④口口 |①---|
①口③① |----|
口②口口 |--②-|
口口口口 |③-④-|
48
口④口口 |①---|
①口③① |----|
口②口口 |--②-|
口口口口 |③-④-|
49
口④口口 |①---|
①口③① |----|
口②口口 |--②-|
口口口口 |③-④-|
50
口口口口 |①---|
①口口① |----|
②口口② |②---|
口口口口 |----|
51
口口口口 |①---|
口②②口 |----|
口口口口 |②---|
口①①口 |----|


不確定度: 0

最終更新:2013年05月28日 15:11