HEKIREKI
LAST ALLIANCE

BASIC

Level: 3
BPM: 260
Notes: 169

1
口口口口 |----|
口口口口 |----|
口口口口 |----|
口口口口 |----|
2
口口口口 |----|
①口口口 |①---|
口口口口 |----|
口口口口 |----|
3
口口口口 |----|
口口口口 |-----①--|
口①口口 |----|
口口口口 |----|
4
口口口口 |----|
口口口口 |----|
口口①口 |-①------|
口口口口 |----|
5
口口口口 |----|
口口口① |----|
口口口口 |---①|
口口口口 |----|
6
口口口口 |----|
口口口口 |----|
①口口口 |----|
口口口口 |---①----|
7
口口口口 |----|
口口口口 |----|
口口口口 |----|
口口口口 |----|
8
口口口口 |①---|
口①口口 |----|
口口口口 |----|
口口口口 |----|
9
口口口口 |-----①--|
口口①口 |----|
口口口口 |----|
口口口口 |----|
10
口口口口 |----|
口口口口 |①---|
口口口① |----|
口口②口 |--②-|
11
口口口口 |----|
口口口口 |----|
口①口口 |①---|
口口口口 |----|
12
口口口口 |--①-|
①①口口 |----|
口口口口 |----|
口口口口 |----|
13
口口口口 |----|
口口口口 |----|
口口口口 |----|
口口口口 |----|
14
口口口口 |----|
口口口口 |----|
口口口口 |----|
口口口口 |----|
15
口口口口 |----|
口口口口 |----|
口口口口 |----|
口口口口 |----|
16
口口口口 |----|
口口口口 |----|
口口口口 |----|
口口口口 |----|
17
口口口口 |----|
口口口口 |----|
口口口口 |----|
口口口口 |----|
18
口口口口 |----|
口口口口 |----|
口口口口 |----|
口口口口 |----|
19
口口口口 |----|
①口口口 |----|
口口口口 |----|
口口口口 |①---|
20
口口口口 |----|
口①②口 |①---|
口口口口 |----|
口口口口 |②---|
21
口口口口 |----|
口口口① |①---|
口口口② |----|
口口口口 |②---|
22
口口口口 |----|
口口口口 |①---|
口②①口 |----|
口口口口 |②---|
23
口口口口 |----|
①口口口 |----|
口口口口 |----|
口口口口 |①---|
24
口口口口 |----|
口①②口 |①---|
口口口口 |----|
口口口口 |②---|
25
口口口② |----|
口口口① |①---|
口口口口 |----|
口口口口 |②---|
26
口②①口 |----|
口口口口 |①---|
口口口口 |----|
口口口口 |②---|
27
口口口口 |----|
①口口口 |----|
口口口口 |----|
口口口口 |①---|
28
口口口口 |----|
口①②口 |①---|
口口口口 |----|
口口口口 |②---|
29
口口口口 |----|
口口口① |①---|
口口口② |----|
口口口口 |②---|
30
口口口口 |----|
口口口口 |①---|
口②①口 |----|
口口口口 |②---|
31
口口口口 |----|
①口口口 |----|
口口口口 |----|
口口口口 |①---|
32
口口口口 |----|
口①②口 |①---|
口口口口 |----|
口口口口 |②---|
33
口口口② |----|
口口口① |①---|
口口口口 |----|
口口口口 |②---|
34
口②①口 |----|
口口口口 |①---|
口口口口 |----|
口口口口 |②---|
35
①口口口 |----|
口口口口 |----|
口口口口 |----|
口口口口 |①---|
36
口①②口 |----|
口口口口 |①---|
口口口口 |----|
口口口口 |②---|
37
口口口口 |----|
口口口口 |----|
口口口口 |----|
口口口口 |----|
38
口口口口 |①---|
口口口口 |----|
①口口口 |②---|
口②口口 |----|
39
口口口口 |①---|
口口口口 |----|
口口口② |②---|
口口①口 |----|
40
口③口口 |①---|
口口②口 |--②-|
口①口口 |----|
口口口口 |③---|
41
口口口口 |----|
口口口口 |----|
口口口口 |----|
口口口口 |----|
42
口②口口 |①---|
①口口口 |----|
口口口口 |②---|
口口口口 |----|
43
口口①口 |①---|
口口口② |----|
口口口口 |②---|
口口口口 |----|
44
口口口口 |①---|
口①口口 |--②-|
口口②口 |----|
口③口口 |③---|
45
口口口口 |----|
口口口口 |----|
口口口口 |----|
口口口口 |----|
46
口口口口 |①---|
口口口口 |----|
①口口口 |②---|
口②口口 |----|
47
口口口口 |①---|
口口口口 |----|
口口口② |②---|
口口①口 |----|
48
口③口口 |①---|
口口②口 |--②-|
口①口口 |----|
口口口口 |③---|
49
口口口口 |----|
口口口口 |----|
口口口口 |----|
口口口口 |----|
50
口②口口 |①---|
①口口口 |----|
口口口口 |②---|
口口口口 |----|
51
口口①口 |①---|
口口口② |----|
口口口口 |②---|
口口口口 |----|
52
口口口口 |①---|
口口口口 |----|
口②①口 |②---|
口口口口 |----|
53
口口口口 |①---|
口口口口 |----|
口口口口 |----|
口①口口 |----|
54
口口口口 |①---|
口口口口 |----|
①口口口 |②---|
口②口口 |----|
55
口口口口 |①---|
口口口口 |----|
口口口② |②---|
口口①口 |----|
56
口③③口 |①---|
口②②口 |--②-|
口①①口 |----|
口口口口 |③---|
57
口口口口 |----|
口口口口 |----|
口口口口 |----|
口口口口 |----|
58
口②口口 |①---|
①口口口 |----|
口口口口 |②---|
口口口口 |----|
59
口口①口 |①---|
口口口② |----|
口口口口 |②---|
口口口口 |----|
60
口口口口 |①---|
口①①口 |--②-|
口②②口 |----|
口③③口 |③---|
61
口口口口 |----|
口口口口 |----|
口口口口 |----|
口口口口 |----|
62
口口口口 |①---|
口口口口 |----|
①口口口 |②---|
口②口口 |----|
63
口口口口 |①---|
口口口口 |----|
口口口② |②---|
口口①口 |----|
64
口③③口 |①---|
口②②口 |--②-|
口①①口 |----|
口口口口 |③---|
65
口口口口 |----|
口口口口 |----|
口口口口 |----|
口口口口 |----|
66
口②口口 |①---|
①口口口 |----|
口口口口 |②---|
口口口口 |----|
67
口口①口 |①---|
口口口② |----|
口口口口 |②---|
口口口口 |----|
68
口口口口 |①---|
口口口口 |----|
口②①口 |②---|
口口口口 |----|
69
口口口口 |①---|
口①①口 |----|
口口口口 |----|
口口口口 |----|
70
①口口② |①---|
口口口口 |----|
口口口口 |②---|
口口口口 |----|
71
口口口口 |①---|
①口口② |----|
口口口口 |②---|
口口口口 |----|
72
口口口口 |①---|
口口口口 |----|
口①①口 |----|
口口口口 |----|
73
口口口口 |----|
口口口口 |----|
口口口口 |----|
口口口口 |----|
74
口口口口 |①---|
①口口② |----|
口口口口 |②---|
口口口口 |----|
75
口口口口 |①---|
口口口口 |----|
①口口② |②---|
口口口口 |----|
76
口口口口 |①---|
口口口口 |----|
口口口口 |----|
口①①口 |----|
77
口口口口 |①---|
口①①口 |----|
口口口口 |----|
口口口口 |----|
78
口口口口 |①---|
口口口口 |----|
口②口口 |②---|
①口口口 |----|
79
口口口② |①---|
口口①口 |----|
口口口口 |②---|
口口口口 |----|
80
口②①口 |①---|
口口口口 |----|
口口口口 |②---|
口口口口 |----|
81
①口口口 |①---|
②口口口 |----|
口口口口 |②---|
口口口口 |----|
82
口口口口 |①---|
口口口口 |----|
①口口口 |②---|
②口口口 |----|
83
口口口口 |①---|
口口②口 |----|
口①口口 |②---|
口口口口 |----|
84
口①①口 |①---|
口口口口 |----|
口口口口 |----|
口口口口 |----|
85
口口口口 |①---|
口口口口 |----|
口①①口 |----|
口口口口 |----|
86
口口口① |①---|
②口口口 |----|
口口口口 |②---|
口口口口 |----|
87
口口口口 |①---|
口口口口 |----|
口口口① |②---|
②口口口 |----|
88
①口口口 |①---|
口口口② |----|
口口口口 |②---|
口口口口 |----|
89
口口口口 |①---|
口口口口 |----|
①口口口 |②---|
口口口② |----|
90
口口①口 |①---|
口②口口 |----|
口口口口 |②---|
口口口口 |----|
91
口口口口 |①---|
口口口口 |----|
口口①口 |②---|
口②口口 |----|
92
口口口口 |①---|
口口口口 |----|
口②口口 |②---|
口口①口 |----|
93
口②口口 |①---|
口口①口 |----|
口口口口 |②---|
口口口口 |----|
94
口口口口 |①---|
口口口口 |----|
口口口口 |②---|
口口②① |----|
95
口口口口 |①---|
口口口口 |----|
口口口口 |②---|
②①口口 |----|
96
口口口口 |①---|
口口②口 |----|
口①口口 |②---|
口口口口 |----|
97
口口②① |①---|
口口口口 |----|
口口口口 |②---|
口口口口 |----|
98
①口口口 |①---|
口②口口 |----|
口口口口 |②---|
口口口口 |----|
99
口口口口 |①---|
口口口口 |----|
口口①口 |②---|
口口口② |----|
100
口口口口 |①---|
口①①口 |----|
口口口口 |----|
口口口口 |----|


不确定度: 0

最終更新:2012年11月08日 04:15