アイデンティティ
サカナクション

BASIC

Level: 3
BPM: 140
Notes: 184

全程BPM在140附近飄忽不定
1
口口口口 |----|
口口口口 |----|
口口口口 |----|
口口口口 |----|
2
口口口口 |----|
口口口口 |----|
口口口口 |----|
口口口口 |----|
3
口口口口 |----|
口口口口 |----|
口口口口 |----|
口口口口 |----|
4
口口口口 |①---|
口①①口 |----|
口口口口 |----|
口口口口 |----|
5
口口口口 |①---|
口口口口 |----|
口①①口 |----|
口口口口 |----|
6
口口口口 |①---|
口口口口 |②---|
口③④口 |③---|
口①②口 |④---|
7
口口口口 |①---|
②口口② |----|
①口口① |②---|
口口口口 |----|
8
口口口口 |①---|
口①①口 |----|
口口口口 |----|
口口口口 |----|
9
口口口口 |①---|
口口口口 |----|
口①①口 |----|
口口口口 |----|
10
口口口口 |①---|
口口口口 |②---|
口③④口 |③---|
口①②口 |④---|
11
口口口口 |①---|
②口口② |----|
①口口① |②---|
口口口口 |----|
12
口口口口 |①---|
②③口口 |----|
口口口口 |②---|
①①口口 |③---|
13
口口口口 |①---|
口口③② |----|
口口口口 |②---|
口口①① |③---|
14
口口口口 |①---|
口②③口 |----|
口口口口 |②---|
①①口口 |③---|
15
口④④口 |①---|
口③③口 |②---|
口②②口 |③---|
口①①口 |④---|
16
②口③① |①---|
口口口口 |----|
口口口口 |②---|
口口口口 |--③-|
17
口口口口 |--①-|
口①口口 |--②-|
口口②口 |----|
口口口口 |----|
18
口口口口 |①---|
口③口口 |----|
①口口② |②---|
口口口口 |--③-|
19
口①③口 |--①-|
口口②口 |--②-|
口口口口 |--③-|
口口口口 |----|
20
口口口口 |①---|
②口口② |----|
口①①口 |②---|
口口口口 |----|
21
①口口① |①---|
口口口口 |----|
口②②口 |②---|
口口口口 |----|
22
口口口口 |①---|
①③口② |----|
①口口② |②---|
口口口口 |--③-|
23
口口口口 |--①-|
口口口口 |--②-|
口口①口 |----|
口②口口 |----|
24
②口③① |①---|
口口口口 |----|
口口口口 |②---|
口口口口 |--③-|
25
口口口口 |--①-|
口①口口 |--②-|
口口②口 |----|
口口口口 |----|
26
口口口口 |①---|
口③口口 |----|
①口口② |②---|
口口口口 |--③-|
27
口①③口 |--①-|
口口②口 |--②-|
口口口口 |--③-|
口口口口 |----|
28
口口口口 |①---|
②口口② |----|
口①①口 |②---|
口口口口 |----|
29
①口口① |①---|
口口口口 |----|
②口口② |②---|
口口口口 |----|
30
口口口口 |①---|
口②③口 |②---|
口①④口 |③---|
口口口口 |④---|
31
口口口口 |①---|
口口口口 |----|
口①口口 |----|
口口口口 |----|
32
口①①口 |①---|
口口②口 |②---|
口口③口 |③---|
口口④口 |④---|
33
口④口口 |①---|
口③口口 |②---|
口②口口 |③---|
口①口口 |④---|
34
口口①口 |①---|
口口②口 |②---|
口口③口 |③---|
口口④口 |④---|
35
口④口口 |①---|
口③口口 |②---|
口②口口 |③---|
口①口口 |④---|
36
口口口① |①---|
口口口① |----|
口口口口 |----|
口口口口 |----|
37
①口口口 |①---|
①口口口 |----|
口口口口 |----|
口口口口 |----|
38
口口④口 |①---|
口③口口 |②---|
口口②口 |③---|
口①口口 |④---|
39
口口口口 |①---|
口口口口 |②---|
口①②口 |----|
口口口口 |----|
40
口①①口 |①---|
口口②口 |②---|
口口③口 |③---|
口口④口 |④---|
41
口④口口 |①---|
口③口口 |②---|
口②口口 |③---|
口①口口 |④---|
42
口口①口 |①---|
口口②口 |②---|
口口③口 |③---|
口口④口 |④---|
43
口④口口 |①---|
口③口口 |②---|
口②口口 |③---|
口①口口 |④---|
44
①口口① |①---|
口口口口 |----|
口②②口 |----|
口口口口 |--②-|
45
口口口口 |----|
口①①口 |----|
口口口口 |①---|
口口口口 |----|
46
口口口口 |①---|
②口口② |----|
口①①口 |②---|
口口口口 |----|
47
口①②口 |①---|
口③④口 |②---|
口口口口 |③---|
口口口口 |④---|
48
口口口口 |①---|
②口口② |----|
①口口① |②---|
口口口口 |----|
49
口口口口 |①---|
口口口口 |②---|
口③④口 |③---|
口①②口 |④---|
50
口口口口 |①---|
②口口② |----|
①口口① |②---|
口口口口 |----|
51
口①②口 |①---|
口③④口 |②---|
口口口口 |③---|
口口口口 |④---|
52
口口口口 |①---|
②口口② |----|
①口口① |②---|
口口口口 |----|
53
口口口口 |①---|
口口口口 |②---|
口③④口 |③---|
口①②口 |④---|
54
口口口口 |①---|
②口口② |----|
①口口① |②---|
口口口口 |----|
55
口口④口 |①---|
口③口口 |②---|
口口②口 |③---|
口①口口 |④---|


不確定度: 0

最終更新:2013年05月28日 15:09