アイデンティティ
サカナクション

ADVANCED

Level: 6
BPM: 140
Notes: 361

全程BPM在140附近飄忽不定
1
口口口口 |----|
口口口口 |----|
口口口口 |----|
口口口口 |----|
2
口口口口 |----|
口口口口 |----|
口口口口 |----|
口口口口 |----|
3
口口口口 |----|
口口口口 |----|
口口口口 |----|
口口口口 |----|
4
口口口口 |①---|
③①口② |②-③-|
口①口口
口①口口

口口④口
口口口口
口⑤口口 |④---|
口口口口 |⑤---|
5
①口⑤口 |--①-|
口②③口 |②-③-|
口口口④ |④---|
口口口口 |⑤---|
6
口④口口 |①---|
口③口口 |②---|
口②口口 |③---|
口①口口 |④---|
7
口口④④ |--①-|
口口口口 |②-③-|
口③②① |④---|
口口口口 |----|
8
口口口口 |①---|
③①口② |②-③-|
口①口口
口①口口

口口④口
口口口口
口⑤口口 |④---|
口口口口 |⑤---|
9
①口⑤口 |--①-|
口②③口 |②-③-|
口口口④ |④---|
口口口口 |⑤---|
10
④④口口 |①---|
③③口口 |②---|
②②口口 |③---|
①①口口 |④---|
11
口口口口 |--①-|
④口①④ |②-③-|
④②口④ |④---|
口口③口 |----|
12
口口口④ |①---|
口口口③ |②---|
口口口② |③---|
口①口① |④---|
13
④口口口 |①---|
③口口口 |②---|
②口口口 |③---|
①口①口 |④---|
14
口口口④ |①---|
口口口③ |②---|
口口口② |③---|
口①口① |④---|
15
口④④口 |①---|
口③③口 |②---|
口②②口 |③---|
口①①口 |④---|
16
口口口口 |--①-|
①②③④ |②-③-|
口口⑥⑤ |④-⑤-|
⑦口⑦口 |⑥-⑦-|
17
口③口口 |--①-|
口②口口 |②-③-|
口①口口
口口口口

口口口口
口⑥⑤④
口口口口 |--④-|
口口口口 |⑤-⑥-|
18
口口口口 |①-②-|
①口口口 |③-④-|
②③口口
口④口口

口口口口
⑦口⑥口
口口口口 |⑤-⑥-|
口口⑤口 |--⑦-|
19
口口口口 |--①-|
口口口口 |--②-|
口口口口
①口口②

口口口③
口口口口
口口口口 |--③-|
④口口口 |--④-|
20
口口③口 |①---|
①④口② |②---|
⑥口⑤口 |③-④-|
口口口口 |⑤-⑥-|
21
①口②口 |--①-|
口口③口 |②-③-|
口口口口
口口口口

⑥口口口
⑤口口口
④口口口 |--④-|
口口口口 |⑤-⑥-|
22
口①②口 |①-②-|
口④③口 |③-④-|
口口口口
口口口口

口口口口
⑧口⑧口
口⑤口口 |⑤-⑥-|
口⑥⑦口 |⑦-⑧-|
23
口口口口 |--①-|
口口口口 |--②-|
口①口① |----|
②口②口 |----|
24
①口口口 |--①-|
②⑦⑦⑥ |②-③-|
③口口⑤ |④-⑤-|
口口口④ |⑥-⑦-|
25
③口口口 |--①-|
④口口口 |--②-|
⑤①①口 |--③-|
口②②口 |④-⑤-|
26
口④口口 |①-②-|
口③⑤⑦ |③-④-|
口②口口 |⑤-⑥-|
口①⑥口 |--⑦-|
27
口口口口 |--①-|
口口②④ |--②-|
口口口口 |--③-|
口口③① |--④-|
28
②口口口 |①---|
口口口⑥ |②---|
③④⑤① |③-④-|
口口口口 |⑤-⑥-|
29
口口①口 |--①-|
口②口口 |--②-|
⑤口④口 |--③-|
口③口口 |④-⑤-|
30
①口口② |①---|
口⑤⑥口 |②---|
口③④口 |③-④-|
口口口口 |⑤-⑥-|
31
口口口口 |----|
口口口口 |----|
口口口口 |①---|
①口口① |----|
32
①①①① |①---|
口①①口 |②---|
口④③② |③---|
口口口口 |④---|
33
④④④④ |①---|
口口口口 |②---|
②口③口 |③---|
①①①① |④---|
34
口口口口 |①---|
口口口口 |②---|
口口口① |③---|
④③②① |④---|
35
口口⑥口 |①---|
口⑤①口 |②---|
②口④口 |③-④-|
口③①口 |⑤-⑥-|
36
口口⑤口 |--①-|
口④口口 |----|
①口③① |②-③-|
口②口口 |④-⑤-|
37
口口⑥⑥ |--①-|
①⑤口① |--②-|
口口④口 |③-④-|
②③口② |⑤-⑥-|
38
④④口口 |----|
②口口③ |①---|
口①①口 |②-③-|
口口口口 |--④-|
39
口口口口 |--①-|
口口口口 |②---|
②口口① |----|
③口口③ |③---|
40
①①①① |①---|
口①①口 |②---|
口④③② |③---|
口口口口 |④---|
41
④④④④ |①---|
口口口口 |②---|
②口③口 |③---|
①①①① |④---|
42
口口口口 |①---|
口口口口 |②---|
口口口① |③---|
④③②① |④---|
43
口口⑥口 |①---|
口⑤①口 |②---|
②口④口 |③-④-|
口③①口 |⑤-⑥-|
44
口口口口 |--①-|
口口⑤口 |----|
①④③① |②-③-|
口②⑤口 |④-⑤-|
45
口口口口 |--①-|
口①口口 |--②-|
②口口②
口①口口

口口口口
④⑤⑤④
口口口口 |③-④-|
③口口③ |⑤---|
46
口⑦⑦口 |--①-|
②③③② |②-③-|
⑤⑥⑥⑤ |④-⑤-|
①④④① |⑥-⑦-|
47
④口口④ |①---|
③①①② |②-③-|
③⑤⑤② |④---|
口⑤⑤口 |⑤---|
48
①口口口 |--①-|
口②③口 |②-③-|
口口口口
口口口口

⑤口口⑤
口口口口
口④口④ |④---|
口口口口 |⑤---|
49
④④口口 |①---|
③③口口 |②---|
②②口口 |③---|
①①口口 |④---|
50
④口口④ |--①-|
口①①口 |②-③-|
③②②③ |④---|
口口口口 |----|
51
口口口口 |①---|
③①口② |②-③-|
口①口口
口①口口

口④④口
口口口口
口⑤⑤口 |④---|
口口口口 |⑤---|
52
①⑤⑤口 |--①-|
口②③口 |②-③-|
口④口④ |④---|
口口口口 |⑤---|
53
④④口口 |①---|
③③口口 |②---|
②②口口 |③---|
①①口口 |④---|
54
④口口④ |--①-|
④①①④ |②-③-|
口②②口 |④---|
口③③口 |----|
55
④口口④ |①---|
③口口③ |②---|
②口口② |③---|
①口口① |④---|


不確定度: 0

最終更新:2013年05月28日 15:09