ヘビーローテーション
AKB48

BASIC

Level: 2
BPM: 178
Notes: 206

1
口口口口 |----|
口口口口 |----|
口口口口 |----|
口口口口 |----|
2
口口口口 |①---|
口口口口 |----|
口①口口 |----|
口口口口 |----|
3
口口口口 |①---|
口口口口 |----|
口口①口 |----|
口口口口 |----|
4
口口口口 |①---|
口口①口 |----|
口口口口 |----|
口口口口 |----|
5
②③口口 |①---|
口①口口 |----|
口口口口 |②---|
口口口口 |③---|
6
口口①口 |①---|
口口③② |----|
口口口口 |②---|
口口口口 |③---|
7
口口口口 |①---|
口①口口 |----|
②③口口 |②---|
口口口口 |③---|
8
口口口口 |①---|
口口口口 |----|
口口①口 |②---|
口口③② |③---|
9
口口口口 |①---|
口口口口 |----|
②③口口 |②---|
口①口口 |③---|
10
口口口口 |①---|
口口③② |----|
口口①口 |②---|
口口口口 |③---|
11
②③口口 |①---|
口①口口 |----|
口口口口 |②---|
口口口口 |③---|
12
口口①口 |①---|
口口②口 |----|
口口口口 |②---|
口口口口 |----|
13
口①口口 |①---|
口②口口 |----|
口口口口 |②---|
口口口口 |----|
14
口口口口 |①---|
口口口口 |②---|
①③口口 |③---|
②④口口 |④---|
15
口口口口 |①---|
口口口口 |②---|
口口①③ |③---|
口口②④ |④---|
16
口口口口 |①---|
口口口口 |----|
口②①口 |②---|
口口口口 |----|
17
口口口口 |①---|
口①①口 |----|
口口口口 |----|
口口口口 |----|
18
口①①口 |①---|
口口口口 |----|
口口口口 |----|
口口口口 |----|
19
口口口口 |①---|
口②②口 |----|
口①①口 |②---|
口口口口 |----|
20
口①①口 |①---|
口口口口 |----|
口口口口 |----|
口口口口 |----|
21
①口口① |①---|
口口口口 |----|
口口口口 |----|
口口口口 |----|
22
口口口口 |①---|
口①①口 |----|
口口口口 |----|
口口口口 |----|
23
口口口口 |①---|
口口口口 |----|
口口口口 |----|
口①①口 |----|
24
口口口口 |①---|
口口口口 |----|
口①①口 |----|
口口口口 |----|
25
口口口口 |①---|
①口口① |----|
口口口口 |----|
口口口口 |----|
26
口①①口 |①---|
口②②口 |----|
口口口口 |②---|
口口口口 |----|
27
口口口口 |①---|
口口口口 |----|
口①①口 |----|
口口口口 |----|
28
口口口口 |①---|
口②口口 |----|
①口口口 |②---|
口口口口 |----|
29
口口口口 |①---|
口口口口 |----|
口①①口 |----|
口口口口 |----|
30
口口口口 |①---|
口口②口 |----|
口口口① |②---|
口口口口 |----|
31
口口口口 |①---|
口口口口 |----|
口①①口 |----|
口口口口 |----|
32
口口口口 |①---|
口口口口 |----|
口口②口 |②---|
口①口口 |----|
33
口口②口 |①---|
口①口口 |----|
口口口口 |②---|
口口口口 |----|
34
口口口口 |①---|
口口口① |----|
口口②口 |②---|
口口口口 |----|
35
口口口口 |①---|
口①①口 |----|
口口口口 |----|
口口口口 |----|
36
口口口口 |①---|
口②口口 |----|
①口口口 |②---|
口口口口 |----|
37
口口口口 |①---|
口口口口 |----|
口①①口 |----|
口口口口 |----|
38
口口口口 |①---|
口口②口 |----|
口口口① |②---|
口口口口 |----|
39
口口口口 |①---|
口口口口 |----|
口①①口 |----|
口口口口 |----|
40
口口口口 |①---|
口口口口 |----|
口②口口 |②---|
口口①口 |----|
41
口②口口 |①---|
口口①口 |----|
口口口口 |②---|
口口口口 |----|
42
口口口口 |①---|
①口口口 |----|
口②口口 |②---|
口口口口 |----|
43
口口口口 |①---|
口口口② |----|
口口①口 |②---|
口口口口 |----|
44
口口①① |①---|
口口口口 |----|
口口口口 |----|
口口口口 |----|
45
口口口口 |①---|
①①口口 |----|
口口口口 |----|
口口口口 |----|
46
口口口口 |①---|
口口口口 |----|
口口①① |----|
口口口口 |----|
47
口口口口 |①---|
口口口口 |----|
口口口口 |----|
①①口口 |----|
48
口口口口 |①---|
口口口口 |----|
口①①口 |----|
口口口口 |----|
49
口口口口 |①---|
口①①口 |----|
口口口口 |----|
口口口口 |----|
50
口①①口 |①---|
口口口口 |----|
口口口口 |----|
口口口口 |----|
51
①②口口 |----|
口口口口 |----|
口口口口 |①---|
口口口口 |②---|
52
口口①口 |①---|
口口③② |----|
口口口口 |②---|
口口口口 |③---|
53
口口口口 |①---|
口①口口 |----|
②③口口 |②---|
口口口口 |③---|
54
口口口口 |①---|
口口口口 |----|
口口①口 |②---|
口口③② |③---|
55
口口口口 |①---|
口口口口 |----|
②③口口 |②---|
口①口口 |③---|
56
口口口口 |①---|
口口③② |----|
口口①口 |②---|
口口口口 |③---|
57
②③口口 |①---|
口①口口 |----|
口口口口 |②---|
口口口口 |③---|
58
口口①口 |①---|
口口②口 |----|
口口口口 |②---|
口口口口 |----|
59
口①口口 |①---|
口②口口 |----|
口口口口 |②---|
口口口口 |----|
60
口口口口 |①---|
口口口口 |②---|
①③口口 |③---|
②④口口 |④---|
61
口口口口 |①---|
口口口口 |②---|
口口①③ |③---|
口口②④ |④---|
62
口口口口 |①---|
口口口口 |----|
口②①口 |②---|
口口口口 |----|
63
口口口口 |①---|
口①①口 |----|
口口口口 |----|
口口口口 |----|
64
口口口口 |①---|
口口口口 |----|
①口口① |----|
口口口口 |----|
65
口口口口 |①---|
口①①口 |----|
口口口口 |----|
口口口口 |----|
66
口①①口 |①---|
口口口口 |----|
口口口口 |----|
口口口口 |----|
67
①②口口 |----|
口口口口 |----|
口口口口 |①---|
口口口口 |②---|
68
口口①口 |①---|
口口③② |----|
口口口口 |②---|
口口口口 |③---|
69
口口口口 |①---|
口①口口 |----|
②③口口 |②---|
口口口口 |③---|
70
口口口口 |①---|
口口口口 |----|
口口①口 |②---|
口口③② |③---|
71
口口口口 |①---|
口口口口 |----|
②③口口 |②---|
口①口口 |③---|
72
口口口口 |①---|
口口③② |----|
口口①口 |②---|
口口口口 |③---|
73
②③口口 |①---|
口①口口 |----|
口口口口 |②---|
口口口口 |③---|
74
口口①口 |①---|
口口②口 |----|
口口口口 |②---|
口口口口 |----|
75
口①口口 |①---|
口②口口 |----|
口口口口 |②---|
口口口口 |----|
76
口口口口 |①---|
口口口口 |②---|
①③口口 |③---|
②④口口 |④---|
77
口口口口 |①---|
口口口口 |②---|
口口①③ |③---|
口口②④ |④---|
78
口口口口 |①---|
口口口口 |----|
口②①口 |②---|
口口口口 |----|
79
口口口口 |①---|
口①①口 |----|
口口口口 |----|
口口口口 |----|
80
口①①口 |①---|
口口口口 |----|
口口口口 |----|
口口口口 |----|
81
口口口口 |①---|
口②②口 |----|
口①①口 |②---|
口口口口 |----|
82
口①①口 |①---|
口口口口 |----|
口口口口 |----|
口口口口 |----|
83
①口口① |①---|
口口口口 |----|
口口口口 |----|
口口口口 |----|
84
口口口口 |①---|
口①①口 |----|
口口口口 |----|
口口口口 |----|
85
口口口口 |①---|
①口口① |----|
口口口口 |----|
口口口口 |----|
86
口口口口 |①---|
口口口口 |----|
口口①口 |----|
口口口口 |----|

BPM: 160
87
口口口口 |①---|
口口口口
口①口口
口口口口

BPM: 150

口口口口
口口口口 |----|
口口口口
口口口口

BPM: 143

口口口口
口口口口
口口口口 |----|
口口口口

BPM: 180

口口口口
口口口口
口口口口
口口口口 |----|
88
口口口口 |①---|
口①①口 |----|
口口口口 |----|
口口口口 |----|


不確定度: 0

最終更新:2013年05月28日 15:08