Rocknrolla!
[Champagne]

BASIC

Level: 3
BPM: 159
Notes: 210

全程BPM在159附近飄忽不定
1
口口口口 |----|
口口口口 |----|
口口口口 |----|
口口口口 |----|
2
口口口口 |----|
口口口口 |----|
口口口口 |----|
口口口口 |----|
3
口口口口 |①---|
口口口口 |----|
口口口口 |②---|
口①②口 |----|
4
口口口口 |①---|
口口口口 |----|
口①②口 |②---|
口口口口 |----|
5
口口口口 |①---|
口口口口 |----|
口口口口 |②---|
口①②口 |----|
6
口口口口 |①---|
口口口口 |----|
口①②口 |②---|
口口口口 |----|
7
口口口口 |①---|
口口口口 |----|
口口口② |②---|
口①口口 |----|
8
口口口口 |①---|
口口口口 |----|
②口口口 |②---|
口口①口 |----|
9
口口口口 |①---|
口口口口 |----|
口口口② |②---|
口①口口 |----|
10
口口口口 |①---|
口口口口 |----|
②口口口 |②---|
口口①口 |----|
11
②口口口 |①---|
口③口口 |----|
口口①口 |②---|
口口口口 |③---|
12
口口①② |①---|
口口口口 |----|
口口口口 |②---|
口口口口 |----|
13
口口口② |①---|
口口③口 |----|
口①口口 |②---|
口口口口 |③---|
14
②①口口 |①---|
口口口口 |----|
口口口口 |②---|
口口口口 |----|
15
②口口口 |①---|
口③口口 |----|
口①①口 |②---|
口口口口 |③---|
16
口口①② |①---|
口口口口 |----|
口口口口 |②---|
口口口口 |----|
17
口口口② |①---|
口口③口 |----|
口①①口 |②---|
口口口口 |③---|
18
②①口口 |①---|
口口口口 |----|
口口口口 |②---|
口口口口 |----|
19
口口口口 |①---|
口口口口 |----|
口口口口 |----|
①①①① |----|
20
口口口口 |①---|
口口口口 |----|
①①①① |----|
口口口口 |----|
21
口口口口 |①---|
①①①① |----|
口口口口 |----|
口口口口 |----|
22
①①①① |①---|
口口口口 |----|
口口口口 |----|
口口口口 |----|
23
口口口口 |①---|
口口口口 |----|
口口口口 |----|
①①①① |----|
24
口口口口 |①---|
口口口口 |----|
①①①① |----|
口口口口 |----|
25
口口口口 |①---|
①①①① |----|
口口口口 |----|
口口口口 |----|
26
①①①① |①---|
口口口口 |----|
口口口口 |----|
口口口口 |----|
27
口口口口 |①---|
口口口口 |----|
口①②口 |②---|
口口口口 |----|
28
口口口口 |①---|
①②③口 |----|
口口口口 |②---|
口口口口 |③---|
29
口口口口 |①---|
口口口口 |----|
口口②口 |②---|
口口①口 |----|
30
口口口口 |①---|
口口口口 |----|
口②口口 |②---|
口①口口 |----|
31
口口口口 |①---|
口③②① |②---|
口口口口 |③---|
口口口口 |----|
32
口口口口 |①---|
①③②口 |----|
口口口口 |②---|
口口口口 |③---|
33
口口口口 |①---|
口口口口 |----|
口②口口 |②---|
口①口口 |----|
34
口口口口 |①---|
口口口口 |----|
口口②口 |②---|
口口①口 |----|
35
口口口口 |①---|
①②③口 |②---|
口口口口 |③---|
口口口口 |----|
36
口口口口 |①---|
①②③口 |----|
口口口口 |②---|
口口口口 |③---|
37
口口口口 |①---|
口口口口 |----|
口口②口 |②---|
口口①口 |----|
38
口口口口 |①---|
口口口口 |----|
口②口口 |②---|
口①口口 |----|
39
口口口口 |①---|
口③②① |②---|
口口口口 |③---|
口口口口 |----|
40
口口口口 |①---|
①③②口 |----|
口口口口 |②---|
口口口口 |③---|
41
口口口口 |①---|
口口口口 |----|
口②口口 |②---|
口①口口 |----|
42
口口口口 |①---|
口口口口 |----|
口口②口 |②---|
口口①口 |----|
43
口口口口 |①---|
①②③口 |②---|
口口口口 |③---|
口口口口 |----|
44
口口口口 |①---|
口口口口 |----|
口②②口 |②---|
口①①口 |----|
45
口口口口 |①---|
口①①② |----|
口口口③ |②---|
口口口口 |③---|
46
口口口口 |①---|
口口口口 |----|
口②②口 |②---|
口①①口 |----|
47
口口口口 |①---|
②①①口 |----|
③口口口 |②---|
口口口口 |③---|
48
口口口口 |①---|
口口口口 |----|
②口口② |②---|
口①①口 |----|
49
口口口口 |①---|
②口口② |----|
口①①口 |②---|
口口口口 |----|
50
①②②① |①---|
口口口口 |----|
口口口口 |②---|
口口口口 |----|
51
口口口口 |①---|
①口口① |②---|
②口口② |③---|
③口口③ |----|
52
口口口口 |①---|
口口口口 |②---|
③①①② |③---|
口④④口 |④---|
53
口口口口 |①---|
口口口口 |②---|
③①①② |③---|
口④④口 |④---|
54
口口口口 |①---|
③①①② |②---|
口④④口 |③---|
口口口口 |④---|
55
口④④口 |①---|
③①①② |②---|
口口口口 |③---|
口口口口 |④---|
56
口口口口 |①---|
口口口口 |②---|
②①①③ |③---|
口④④口 |④---|
57
口口口口 |①---|
口口口口 |②---|
②①①③ |③---|
口④④口 |④---|
58
口口口口 |①---|
②①①③ |②---|
口④④口 |③---|
口口口口 |④---|
59
口④④口 |①---|
②①①③ |②---|
口口口口 |③---|
口口口口 |④---|
60
①口口① |①---|
口口口口 |----|
口口口口 |----|
口口口口 |----|
61
口口口口 |①---|
①口口① |----|
口口口口 |----|
口口口口 |----|
62
口口口口 |①---|
口口口口 |----|
①口口① |----|
口口口口 |----|
63
口口口口 |①---|
口④④口 |②---|
口③③口 |③---|
①②②① |④---|
64
口①①口 |①---|
口口口口 |----|
口口口口 |----|
口口口口 |----|


不確定度: 0

最終更新:2013年05月28日 15:07