Rocknrolla!
[Champagne]

ADVANCED

Level: 7
BPM: 159
Notes: 486

全程BPM在159附近飄忽不定
1
口口口口 |----|
口口口口 |----|
口口口口 |----|
口口口口 |----|
2
口口口口 |①---|
口口口口 |--②-|
①口口③ |----|
口口②口 |③---|
3
口④口⑤ |①---|
口口③口 |②-③-|
口口口口 |④--⑤|
①①②口 |----|
4
⑤口④口 |①---|
口③口口 |②-③-|
口口口口 |④--⑤|
口②①① |----|
5
口④口⑤ |①---|
口口③口 |②-③-|
口口口口 |④--⑤|
①①②口 |----|
6
⑤口④口 |①---|
口③口口 |②-③-|
口口口口 |④--⑤|
口②①① |----|
7
④④口⑤ |①---|
口口③口 |②-③-|
口口口口 |④--⑤|
①①②口 |----|
8
⑤口④④ |①---|
口③口口 |②-③-|
口口口口 |④--⑤|
口②①① |----|
9
④④口⑤ |①---|
口口③口 |②-③-|
口口口口 |④--⑤|
①①②口 |----|
10
⑤口④④ |①---|
口③口口 |②-③-|
口口口口 |④--⑤|
口②①① |----|
11
口口口口 |①--②|
②⑥⑤④ |--③-|
口③③口 |--④-|
口①①口 |⑤-⑥-|
12
口①①口 |①--②|
口口口口 |--③-|
④③③② |--④-|
口口口口 |----|
13
口口口口 |①--②|
④⑤⑥② |--③-|
口③③口 |--④-|
口①①口 |⑤-⑥-|
14
口①①口 |①--②|
口口口口 |--③-|
②③③④ |--④-|
口口口口 |----|
15
口口口口 |①--②|
②⑥⑤④ |--③-|
口③③口 |--④-|
口①①口 |⑤-⑥-|
16
口①①口 |①--②|
口口口口 |--③-|
④③③② |--④-|
口口口口 |----|
17
口口口口 |①--②|
④⑤⑥② |--③-|
口③③口 |--④-|
口①①口 |⑤-⑥-|
18
口①①口 |①--②|
口口口口 |--③-|
③③③③ |----|
口②②口 |----|
19
口口口口 |①--②|
②⑥⑤④ |--③-|
口③③口 |--④-|
①①①① |⑤-⑥-|
20
①①①① |①--②|
口口口口 |--③-|
④③③② |--④-|
口口口口 |----|
21
口口口口 |①--②|
④⑤⑥② |--③-|
口③③口 |--④-|
①①①① |⑤-⑥-|
22
①①①① |①--②|
口口口口 |--③-|
②③③④ |--④-|
口口口口 |----|
23
口口口口 |①--②|
②⑥⑤④ |--③-|
口③③口 |--④-|
①①①① |⑤-⑥-|
24
①①①① |①--②|
口口口口 |--③-|
④③③② |--④-|
口口口口 |----|
25
口口口口 |①--②|
④⑤⑥② |--③-|
口③③口 |--④-|
①①①① |⑤-⑥-|
26
口①①口 |①--②|
口口口口 |--③-|
③③③③ |--④-|
④②②④ |----|
27
口口口口 |①---|
②①①② |----|
口口口口 |②---|
口口口口 |----|
28
④口口⑧ |①-②-|
③口口⑦ |③-④-|
②口口⑥ |⑤-⑥-|
口①口⑤ |⑦-⑧-|
29
口③③口 |①--②|
口口口口 |--③-|
口②②口
口①①口

口口口口
口口口口
口口口口 |----|
口④口口 |--④-|
30
口④③③ |①--②|
⑤口②② |--③-|
口⑥①① |--④-|
口口口口 |⑤-⑥-|
31
口口⑤⑤ |①-②-|
口口⑥⑥ |③-④-|
口口⑦⑦ |⑤--⑥|
①②③④ |--⑦-|
32
④口口⑧ |①-②-|
③口口⑦ |③-④-|
②口口⑥ |⑤-⑥-|
口①口⑤ |⑦-⑧-|
33
口③③口 |①--②|
口口口口 |--③-|
口②②口
口①①口

口口口口
口口口口
口口口口 |----|
口④口口 |--④-|
34
③③④口 |①--②|
②②口⑤ |--③-|
①①⑥口 |--④-|
口口口口 |⑤-⑥-|
35
⑤⑤口口 |①-②-|
⑥⑥口口 |③-④-|
⑦⑦口口 |⑤--⑥|
④③②① |--⑦-|
36
⑧口口④ |①-②-|
⑦口口③ |③-④-|
⑥口口② |⑤-⑥-|
⑤口①口 |⑦-⑧-|
37
口③③口 |①--②|
口口口口 |--③-|
口②②口
口①①口

口口口口
口口口口
口口口口 |----|
口④口口 |--④-|
38
口④③③ |①--②|
⑤口②② |--③-|
口⑥①① |--④-|
口口口口 |⑤-⑥-|
39
口口⑤⑤ |①-②-|
口口⑥⑥ |③-④-|
口口⑦⑦ |⑤--⑥|
①②③④ |--⑦-|
40
④口口⑧ |①-②-|
③口口⑦ |③-④-|
②口口⑥ |⑤-⑥-|
口①口⑤ |⑦-⑧-|
41
口③③口 |①--②|
口口口口 |--③-|
口②②口
口①①口

口口口口
口口口口
口口口口 |----|
口④口口 |--④-|
42
③③④口 |①--②|
②②口⑤ |--③-|
①①⑥口 |--④-|
口口口口 |⑤-⑥-|
43
口口口口 |①-②-|
口口口口 |③-④-|
口口口口
④③②①

口口口⑤
口口口⑥
口口口⑦ |⑤-⑥-|
口口口⑧ |⑦-⑧-|
44
口口口口 |①---|
口口口口 |----|
口②②口 |②---|
口①①口 |----|
45
②口口③ |①-②-|
④①①⑤ |③-④-|
⑥口口⑦ |⑤-⑥-|
⑧口口口 |⑦-⑧-|
46
口口口口 |①---|
口口口口 |----|
口②②口 |②---|
口①①口 |----|
47
②口口③ |①-②-|
④①①⑤ |③-④-|
⑥口口⑦ |⑤-⑥-|
⑧口口口 |⑦-⑧-|
48
⑥④④⑥ |①--②|
口⑤⑤口 |--③-|
口②②口 |④--⑤|
口③③① |--⑥-|
49
口口口口 |①--②|
②口口② |--③-|
①口口① |④---|
④③③④ |----|
50
口口①① |①--②|
②③口口 |--③-|
口口④④ |④--⑤|
⑤⑥口口 |--⑥-|
51
①①①① |①---|
②②②② |②---|
口口口口 |③---|
③口口③ |----|
52
①①①① |①--②|
口口口口 |--③-|
②⑤③④ |--④-|
口⑥⑥口 |⑤-⑥-|
53
①①①① |①--②|
口④④口 |--③-|
口口口口 |--④-|
③口口② |----|
54
①①①① |①--②|
口口口口 |--③-|
②⑤③④ |--④-|
口⑥⑥口 |⑤-⑥-|
55
①①①① |①--②|
口④④口 |--③-|
口口口口 |--④-|
③口口② |----|
56
①①①① |①--②|
口口口口 |--③-|
②⑤③④ |--④-|
口⑥⑥口 |⑤-⑥-|
57
①①①① |①--②|
口④④口 |--③-|
口口口口 |--④-|
③口口② |----|
58
①①①① |①--②|
口口口口 |--③-|
②⑤③④ |--④-|
口⑥⑥口 |⑤-⑥-|
59
①①①① |①--②|
口④④口 |--③-|
口口口口 |--④-|
③口口② |----|
60
口口口口 |①---|
口口口口 |----|
①口口① |----|
口口口口 |----|
61
口口口口 |①---|
①口口① |----|
口口口口 |----|
口口口口 |----|
62
①口口① |①---|
口口口口 |----|
口口口口 |----|
口口口口 |----|
63
口口口口 |①---|
①口口① |②---|
口口口口
②②②②

口口口口
④④④④
③③③③ |③---|
口口口口 |④---|
64
①①①① |①---|
口口口口 |----|
口口口口 |----|
口口口口 |----|
65
口口口口 |----|
口口口口 |----|
口口口口 |----|
口口口口 |----|
66
口口口口 |----|
口口口口 |①---|
口口口口 |----|
口①①口 |----|


不確定度: 0

最終更新:2013年05月28日 15:05