キャッチーを科学する
アルカラ

BASIC

Level: 3
BPM: 148
Notes: 230

全程BPM在148附近飄忽不定
1
口口口口 |----|
口口口口 |----|
口口口口 |----|
口口口口 |----|
2
口口口口 |①---|
口口口口 |----|
口口口口 |----|
口①口口 |----|
3
口口口口 |①---|
口口口口 |----|
口口①口 |----|
口口口口 |----|
4
口口口口 |①---|
口口口口 |----|
口口口口 |----|
口口①口 |----|
5
口口口口 |①---|
口口口口 |----|
口①口口 |----|
口口口口 |----|
6
口口口口 |①---|
口口口口 |----|
口口口口 |----|
口①①口 |----|
7
口口口口 |----|
口口口口 |----|
口口口口 |----|
口口口口 |----|
8
口口口口 |①---|
口口口口 |----|
口口口口 |----|
①口口① |----|
9
口①①口 |--①-|
口②②口 |-②--|
口③③口 |③---|
口口口口 |----|
10
口口口口 |①---|
口②口① |----|
口口口口 |②---|
口口口口 |----|
11
口口口口 |①---|
口口口口 |----|
口口①口
口口口口

口口口口
口口口口
口③③口 |②---|
口②②口 |③---|
12
口口口口 |①---|
①口②口 |----|
口口口口 |②---|
口口口口 |----|
13
口口口口 |①---|
口口口口 |----|
口①口口 |----|
口口口口 |----|
14
口口口口 |①---|
口②口① |----|
口口口口 |②---|
口口口口 |----|
15
口口口口 |①---|
口口口口 |----|
口口①口
口口口口

口口口口
口口口口
口③③口 |②---|
口②②口 |③---|
16
口口口口 |①---|
①口②口 |----|
口口口口 |②---|
口口口口 |----|
17
口口口口 |①---|
口口口口 |----|
口①口口 |----|
口口口口 |----|
18
口口口口 |①---|
口口口③ |②---|
口口②口 |③---|
口①口口 |----|
19
口①口口 |①---|
口②口口 |②---|
口③口口 |③---|
口口口口 |----|
20
口口口口 |①---|
③口口口 |②---|
口②口口 |③---|
口口①口 |----|
21
口口①口 |①---|
口口②口 |②---|
口口③口 |③---|
口口④口 |④---|
22
口口口口 |①---|
口口③口 |②---|
口②口口 |③---|
①口口口 |----|
23
①口口口 |①---|
②口口口 |②---|
③口口口 |③---|
口口口口 |----|
24
口口口口 |①---|
口③口口 |②---|
口口②口 |③---|
口口口① |----|
25
②口口① |①---|
口③③口 |②---|
④口口④ |③---|
口口口口 |④---|
26
口口口口 |①---|
口口口口 |----|
口②②口 |----|
口①①口 |②---|
27
口①①口 |①---|
口②②口 |----|
口口口口 |----|
口口口口 |②---|
28
口口口口 |①---|
口口口口 |----|
口②②口 |----|
口①①口 |②---|
29
口①①口 |①---|
口口口口 |----|
口口口口 |----|
口口口口 |----|
30
口口①口 |①---|
口②口口 |②---|
③口口口 |③---|
口口口口 |----|
31
口口口口 |①---|
口口口② |②---|
口口口① |----|
口口口口 |----|
32
口①口口 |①---|
②口口口 |②---|
③口口口 |③---|
口④口口 |④---|
33
口口④口 |①---|
口口口③ |②---|
口口口② |③---|
口口①口 |④---|
34
①②口口 |①---|
口口④③ |②---|
口口口口 |③---|
口口口口 |④---|
35
口口④③ |①---|
口口口口 |②---|
①②口口 |③---|
口口口口 |④---|
36
口口口口 |①---|
口②②口 |----|
口①①口 |②---|
口口口口 |----|
37
④口口④ |①---|
③口口③ |②---|
②口口② |③---|
①口口① |④---|
38
口口口口 |①---|
口②②口 |②---|
③口口④ |③---|
口口①口 |④---|
39
口②②口 |①---|
③口口④ |②---|
口①口口 |③---|
口口口口 |④---|
40
口口③口 |①---|
口口②口 |----|
口口口口 |②---|
口口①口 |③---|
41
口①口口 |①---|
口口口口 |----|
口②口口 |②---|
口③口口 |③---|
42
①④口口 |①---|
②③口口 |②---|
口口口口 |③---|
口口口口 |④---|
43
口口①④ |①---|
口口②③ |②---|
口口口口 |③---|
口口口口 |④---|
44
口口口口 |①---|
口口口口 |----|
口①①口
口口口口

口口口口
口口口口
②③③② |②---|
口口口口 |③---|
45
①②②① |①---|
口口口口 |----|
口口口口 |②---|
口口口口 |----|
46
口口口口 |----|
口口口口 |----|
口口口口 |----|
口口口口 |----|
47
口口口口 |----|
口口口口 |----|
口口口口 |----|
口口口口 |----|
48
口口口口 |----|
口口口口 |----|
口口口口 |----|
口口口口 |----|
49
口口口口 |----|
口口口口 |----|
口口口口 |----|
口口口口 |----|
50
口口口口 |①---|
口口口③ |②---|
口口②口 |③---|
口①口口 |----|
51
口①口口 |①---|
口②口口 |②---|
口③口口 |③---|
口口口口 |----|
52
口口口口 |①---|
③口口口 |②---|
口②口口 |③---|
口口①口 |----|
53
口口①口 |①---|
口口②口 |②---|
口口③口 |③---|
口口④口 |④---|
54
口口口口 |①---|
口口③口 |②---|
口②口口 |③---|
①口口口 |----|
55
①口口口 |①---|
②口口口 |②---|
③口口口 |③---|
口口口口 |----|
56
口口口口 |①---|
口③④口 |②---|
口口②口 |③---|
口口口① |④---|
57
口口口口 |①---|
口口口口 |----|
口①口口 |----|
口口口口 |----|
58
口口口口 |①---|
口②②口 |②---|
③口口④ |③---|
口口①口 |④---|
59
口②②口 |①---|
③口口④ |②---|
口①口口 |③---|
口口口口 |④---|
60
口口③口 |①---|
口口②口 |----|
口口口口 |②---|
口口①口 |③---|
61
口①口口 |①---|
口②口口 |②---|
口③口口 |③---|
口④口口 |④---|
62
①④口口 |①---|
②③口口 |②---|
口口口口 |③---|
口口口口 |④---|
63
口口①④ |①---|
口口②③ |②---|
口口口口 |③---|
口口口口 |④---|
64
口口口口 |①---|
口口口口 |----|
口①①口
口口口口

口口口口
口口口口
②③③② |②---|
口口口口 |③---|
65
①②②① |①---|
口口口口 |----|
口口口口 |②---|
口口口口 |----|
66
①②②① |①---|
口口口口 |----|
口口口口 |②---|
口口口口 |----|
67
口口口口 |①---|
②①①② |----|
口口口口 |②---|
口口口口 |----|
68
口口口口 |①---|
口①口口 |----|
口口②口 |②---|
口口口口 |----|
69
口③口口 |①---|
口口②口 |②---|
口①口口 |③---|
口口口口 |----|
70
①②②① |①---|
口口口口 |----|
口口口口 |②---|
口口口口 |----|
71
口口③口 |①---|
口②口口 |②---|
口口①口 |③---|
口口口口 |----|
72
口口口口 |①---|
①口口① |----|
②口口② |②---|
口口口口 |----|
73
口口口口 |①---|
口口口口 |----|
口口口口 |----|
①①①① |----|


不確定度: 0

最終更新:2013年05月28日 15:04