キャッチーを科学する
アルカラ

ADVANCED

Level: 6
BPM: 148
Notes: 419

全程BPM在148附近飄忽不定
1
口口口口 |----|
口口口口 |----|
口口口口 |----|
口口口口 |----|
2
口口口口 |①--②|
口口口口 |-③--|
口口③②
①口口口

口口口口
口口口口
口口口口 |④-⑤-|
⑦⑥⑤④ |⑥-⑦-|
3
口口口口 |①--②|
口口③② |-③--|
①⑥⑤④ |④-⑤-|
口口口口 |⑥---|
4
口口口口 |①--②|
口口③② |-③--|
①口口口
口口口口

口口口口
口口口口
⑦⑥⑤④ |④-⑤-|
口口口口 |⑥-⑦-|
5
口口③② |①--②|
①⑥⑤④ |-③--|
口口口口 |④-⑤-|
口口口口 |⑥---|
6
口口口口 |①--②|
口口口口 |-③--|
口口③②
①①口口

口口口口
口口口口
口口口口 |④-⑤-|
⑦⑥⑤④ |⑥-⑦-|
7
口口口口 |①--②|
口口③② |-③--|
①⑥⑤④ |④-⑤-|
口口口口 |⑥---|
8
口口③② |①--②|
①①口口 |-③--|
口口口口
口口口口

口口口口
⑦⑥⑤④
口口口口 |④-⑤-|
口口口口 |⑥-⑦-|
9
①口口① |--①-|
口口口口 |-②--|
②口口② |③---|
③口口③ |----|
10
口口口② |①---|
①口③口 |----|
口①口④ |②-③-|
口口口口 |④---|
11
口口口口 |①---|
口口口口 |----|
口口①口 |②---|
③②②③ |③---|
12
②口口口 |①---|
口③口① |----|
④口①口 |②-③-|
口口口口 |④---|
13
口口口口 |①---|
口口口口 |----|
口口口口 |----|
口①①口 |----|
14
口口口② |①---|
①口③口 |----|
口①口④ |②-③-|
口口口口 |④---|
15
口口口口 |①---|
口口口口 |----|
口口①口 |②---|
③②②③ |③---|
16
②口口口 |①---|
口③口① |----|
④口①口 |②-③-|
口口口口 |④---|
17
口口口口 |①---|
口口口口 |----|
口口口口 |----|
口①①口 |----|
18
口口③口 |①---|
口口③口 |②---|
口②口口 |③---|
①口口口 |----|
19
口口口口 |①-②-|
⑥⑤口口 |③-④-|
口③④口 |⑤-⑥-|
口口②① |----|
20
口③口口 |①---|
口③口口 |②---|
口口②口 |③---|
④口口① |--④-|
21
口口口口 |①---|
口口②② |②---|
③③口口 |③---|
口①④④ |④---|
22
口口③口 |①---|
口口③口 |②---|
口②口口 |③---|
①口口口 |----|
23
口口口口 |①-②-|
⑥⑤口口 |③-④-|
口③④口 |⑤-⑥-|
口口②① |----|
24
口③口口 |①---|
口③口口 |②---|
口口②口 |③---|
④口口① |--④-|
25
口口口口 |①---|
口口②② |②---|
③③口口 |③---|
⑤①④④ |④-⑤-|
26
③口口③ |①---|
①口口① |----|
口②②口 |--②-|
口口口口 |--③-|
27
口①①口 |----|
口口口口 |----|
②口口② |--①-|
口口口口 |--②-|
28
②口口② |----|
口口口口 |----|
口①①口 |--①-|
口口口口 |--②-|
29
口口口口 |----|
口口口口 |----|
口口口口 |----|
口口口口 |----|
30
口口口① |①---|
口口②口 |②---|
口③口口 |③---|
口③口口 |----|
31
①②口口 |①-②-|
口④③口 |③-④-|
口口口口 |----|
口口口口 |----|
32
①口口口 |①-②-|
②口⑧口 |③-④-|
③口⑦口 |⑤-⑥-|
④⑤⑥口 |⑦-⑧-|
33
口③④⑤ |①-②-|
口②口⑥ |③-④-|
口①口⑦ |⑤-⑥-|
口口口口 |⑦---|
34
口口⑥口 |①-②-|
口④⑤⑧ |③-④-|
②③口⑦ |⑤-⑥-|
①口口口 |⑦-⑧-|
35
⑥口口⑦ |①-②-|
⑤④口口 |③-④-|
口③②口 |⑤-⑥-|
口口①口 |⑦---|
36
口④④口 |①-②-|
口②②口 |----|
③③③③ |③-④-|
①①①① |----|
37
③口口③ |①---|
④口口④ |②---|
②口口② |③---|
①口口① |④---|
38
口口口③ |①---|
口口口④ |②---|
口②①⑤ |③-④-|
口①②⑥ |⑤-⑥-|
39
③①②口 |①---|
④②①口 |②---|
⑤口口口 |③-④-|
口口口口 |⑤---|
40
口口口③ |①---|
口口②口 |②---|
口②①④ |③---|
口①口⑤ |④-⑤-|
41
③①口口 |①---|
口②①口 |②---|
④口②口 |③---|
口口口口 |④---|
42
口口口口 |①-②-|
⑦⑥⑤口 |③-④-|
⑧口④口 |⑤-⑥-|
①②③口 |⑦-⑧-|
43
口⑦⑥⑤ |①-②-|
口⑧口④ |③-④-|
口①②③ |⑤-⑥-|
口口口口 |⑦-⑧-|
44
⑥口口⑥ |①-②-|
口口⑤口 |③-④-|
口④①口 |⑤---|
口②③口 |⑥---|
45
口口口口 |①---|
口口口口 |--②-|
①口口① |③---|
③②②③ |----|
46
口口口口 |----|
口口口口 |----|
口口口口 |----|
口口口口 |----|
47
口口口口 |----|
口口口口 |----|
口口口口 |----|
口口口口 |----|
48
口口口口 |----|
口口口口 |----|
口口口口 |----|
口口口口 |----|
49
口口口口 |----|
口口口口 |----|
口口口口 |----|
口口口口 |----|
50
口口③口 |①---|
口口③口 |②---|
口②口口 |③---|
①口口口 |----|
51
口口口口 |①-②-|
⑤口口口 |③-④-|
口③④口 |⑤---|
口口②① |----|
52
口③口口 |①---|
口③口口 |②---|
口口②口 |③---|
④口口① |--④-|
53
口口口口 |①---|
口口②② |②---|
③③口口 |③---|
口①④④ |④---|
54
口口③口 |①---|
口口③口 |②---|
口②口口 |③---|
①口口口 |----|
55
口口口口 |①-②-|
⑥⑤口口 |③-④-|
口③④口 |⑤-⑥-|
口口②① |----|
56
口口口口 |①---|
口③④口 |②---|
口⑤②口 |③---|
口口口① |④-⑤-|
57
口口口口 |①---|
口口口口 |----|
口口口口 |----|
①口口口 |----|
58
口口口③ |①---|
口口口④ |②---|
口②①⑤ |③-④-|
口①②⑥ |⑤-⑥-|
59
③①②口 |①---|
④②①口 |②---|
⑤口口口 |③-④-|
口口口口 |⑤---|
60
口口口③ |①---|
口口②④ |②---|
口②①⑤ |③-④-|
口①口⑥ |⑤-⑥-|
61
③①口口 |①---|
口②①口 |②---|
④口②口 |③---|
口口口口 |④---|
62
口口口口 |①-②-|
⑦⑥⑤口 |③-④-|
⑧口④口 |⑤-⑥-|
①②③口 |⑦-⑧-|
63
口⑦⑥⑤ |①-②-|
口⑧口④ |③-④-|
口①②③ |⑤-⑥-|
口口口口 |⑦-⑧-|
64
⑥口口⑥ |①-②-|
口口⑤口 |③-④-|
口④①口 |⑤---|
口②③口 |⑥---|
65
⑤口口⑤ |①---|
口口口口 |--②-|
①④④① |③---|
③②②③ |④-⑤-|
66
口口口口 |----|
④①①④ |①-②-|
②口口② |----|
口③③口 |③-④-|
67
③口口口 |----|
口口口口 |①-②-|
口①①口 |----|
②口口② |--③-|
68
口①⑦口 |①-②-|
口②⑤口 |③-④-|
口③⑥口 |--⑤-|
口口④口 |⑥-⑦-|
69
口⑦⑦① |--①-|
口⑤⑤② |②-③-|
口口口③ |④-⑤-|
口⑥⑥④ |⑥-⑦-|
70
①口口① |①---|
口口口口 |②-③-|
口②②④ |----|
③口口③ |--④-|
71
⑦⑦口口 |①-②-|
③⑥口① |③-④-|
②⑤口口 |--⑤-|
口④④口 |⑥-⑦-|
72
口口③③ |--①-|
④口②④ |②-③-|
⑤口①⑤ |--④-|
⑥⑥⑥⑥ |⑤-⑥-|


不確定度: 0

最終更新:2013年05月28日 15:04