僕らの永遠~何度生まれ変わっても、手を繋ぎたいだけの愛だから~
WEAVER

BASIC

Level: 2
BPM: 128
Notes: 143

1
口口口口 |----|
口口口口 |----|
口口口口 |----|
口口口口 |----|
2
口口口口 |①---|
口口口口 |----|
口口①① |----|
口口口口 |----|
3
口口口口 |①---|
口①口口 |----|
口口口口 |----|
口口口口 |----|
4
口口口口 |①---|
口口口口 |----|
口口口口 |----|
口口①① |----|
5
口①口口 |①---|
口口口口 |----|
口口口口 |----|
口口口口 |----|
6
口口口口 |①---|
口口口口 |----|
口口①① |----|
口口口口 |----|
7
口口口口 |①---|
口①口口 |----|
口口口口 |----|
口口口口 |----|
8
口口口口 |①---|
口口口口 |----|
口口口口 |----|
口口①① |----|
9
口①口口 |①---|
口口口口 |----|
口口口口 |----|
口口口口 |----|
10
口口口口 |①---|
口口②口 |----|
①口口口 |②---|
口口口口 |----|
11
口口口口 |①---|
口口口口 |----|
口口①口 |②---|
口口②口 |----|
12
口口②口 |①---|
①口口口 |----|
口口口口 |②---|
口口口口 |----|
13
口口口① |①---|
口口口② |----|
口口口口 |②---|
口口口口 |----|
14
口口口口 |①---|
①口口口 |----|
口②口口 |②---|
口口口口 |----|
15
口口口口 |①---|
口口口口 |----|
口口口口 |②---|
口①②口 |----|
16
口口口口 |①---|
口口口口 |----|
口口口口 |----|
口口口① |----|
17
口口口口 |①---|
口①①口 |----|
口口口口 |----|
口口口口 |----|
18
口口口口 |①---|
口口②口 |----|
①①口口 |②---|
口口口口 |----|
19
口口口口 |①---|
口口口口 |----|
口口①口 |②---|
口口②口 |----|
20
口口②口 |①---|
①口口口 |----|
口口口口 |②---|
口口口口 |----|
21
口口口① |①---|
口口口② |----|
口口口口 |②---|
口口口口 |----|
22
口口口口 |①---|
①口口口 |----|
口②口口 |②---|
口口口口 |----|
23
口口口口 |①---|
口口口口 |----|
口口口口 |②---|
口①②口 |----|
24
口口口口 |①---|
口口口口 |----|
口口口② |②---|
口口口① |----|
25
口口口口 |①---|
口口口口 |----|
口②①口 |②---|
口口口口 |----|
26
口口口口 |①---|
口①①口 |----|
口口口口 |②---|
口②口口 |----|
27
口口口口 |①---|
口口口口 |----|
口①①口 |②---|
口口②口 |----|
28
口口口口 |①---|
口口口② |----|
口口口① |②---|
口口口口 |----|
29
口①①口 |①---|
②口口口 |----|
口口口口 |②---|
口口口口 |----|
30
口口口口 |①---|
口口口口 |②---|
口口口口 |③---|
①②③④ |④---|
31
口口口口 |①---|
口口口口 |②---|
①②③④ |③---|
口口口口 |④---|
32
口口口口 |①---|
①②③④ |②---|
口口口口 |③---|
口口口口 |④---|
33
②①①② |①---|
口口口口 |----|
口口口口 |②---|
口口口口 |----|
34
口③口口 |①---|
②④口口 |②---|
①口口口 |③---|
口口口口 |④---|
35
口口口口 |①---|
口口口口 |----|
口①①口 |②---|
口②②口 |----|
36
口口③口 |①---|
口口④② |②---|
口口口① |③---|
口口口口 |④---|
37
口口口口 |①---|
口口口口 |----|
口①①口 |②---|
口②②口 |----|
38
口口口口 |①---|
口②口口 |----|
①口口口 |②---|
口口口口 |----|
39
口口口口 |①---|
口口口② |----|
口口①口 |②---|
口口口口 |----|
40
②①①② |①---|
口口口口 |----|
口口口口 |②---|
口口口口 |----|
41
口口口口 |①---|
口①②口 |②---|
口③④口 |③---|
口口口口 |④---|
42
口③口口 |①---|
②④口口 |②---|
①口口口 |③---|
口口口口 |④---|
43
口口口口 |①---|
口口口口 |----|
口①①口 |②---|
口②②口 |----|
44
口口③口 |①---|
口口④② |②---|
口口口① |③---|
口口口口 |④---|
45
口口口口 |①---|
口口口口 |----|
口①①口 |②---|
口②②口 |----|
46
口口口口 |①---|
口②口口 |----|
①口口口 |②---|
口口口口 |----|
47
口口口口 |①---|
口口口② |----|
口口①口 |②---|
口口口口 |----|
48
②①①② |①---|
口口口口 |----|
口口口口 |②---|
口口口口 |----|
49
口口口口 |①---|
口①②口 |②---|
口③④口 |③---|
口口口口 |④---|
50
口口口口 |①---|
口口口口 |----|
口②口口 |②---|
口①①口 |----|
51
口口口口 |①---|
口口口口 |----|
①口②① |②---|
口口口口 |----|
52
口口口口 |①---|
①口口① |----|
口口②口 |②---|
口口口口 |----|
53
口口口口 |①---|
口①①口 |----|
口②口口 |②---|
口口口口 |----|
54
口口口口 |----|
口①①口 |----|
口口口口 |①---|
口口口口 |----|
55
口口口口 |①---|
口口口口 |----|
口①①口 |----|
口口口口 |----|


不確定度: 0

最終更新:2013年05月27日 21:10