恋のダイヤル6700
Dream5

BASIC

Level: 3
BPM: 170
Notes: 197

1
口口口口 |----|
口口口口 |----|
口口口口 |----|
口口口口 |----|
2
口口口口 |----|
口口口口 |----|
口口口口 |----|
口口口口 |----|
3
口口口口 |----|
口口口口 |----|
口口口口 |----|
口口口口 |----|
4
口口口口 |----|
口口口口 |----|
口口口口 |----|
口口口口 |----|
5
口口口口 |----|
口口口口 |----|
口口口口 |----|
口口口口 |----|
6
口口口口 |----|
口口口口 |----|
口口口口 |----|
口口口口 |----|
7
口口口口 |----|
口口口口 |----|
口口口口 |----|
口口口口 |----|
8
口口口口 |①---|
口①口口 |----|
口口口口 |----|
口口口口 |----|
9
口口口口 |①---|
口口①口 |----|
口口口口 |----|
口口口口 |----|
10
口口口口 |①---|
口口口口 |----|
口口①口 |----|
口口口口 |----|
11
口口口口 |①---|
口口口口 |----|
口①口口 |----|
口口口口 |----|
12
①②口口 |①---|
口口口口 |----|
口口口口 |②---|
口口口口 |----|
13
口口口口 |①---|
①②口口 |----|
口口口口 |②---|
口口口口 |----|
14
口口口口 |①---|
口口口口 |----|
①②口口 |②---|
口口口口 |----|
15
口口口口 |①---|
口口口口 |----|
口口口口 |②---|
①②口口 |----|
16
口口②① |①---|
口口口口 |----|
口口口口 |②---|
口口口口 |----|
17
口口口口 |①---|
口口②① |----|
口口口口 |②---|
口口口口 |----|
18
口口口口 |①---|
口口口口 |----|
口口②① |②---|
口口口口 |----|
19
口口口口 |①---|
口口口口 |----|
口口口口 |②---|
口口②① |----|
20
①②口口 |①---|
③④口口 |②---|
口口口口 |③---|
口口口口 |④---|
21
口口口口 |①---|
口口口口 |②---|
①②口口 |③---|
③④口口 |④---|
22
口口②① |①---|
口口④③ |②---|
口口口口 |③---|
口口口口 |④---|
23
口口口口 |①---|
口口口口 |②---|
口口②① |③---|
口口口③ |----|
24
口口口口 |①---|
③口口口 |----|
②口口口 |②---|
口①①口 |③---|
25
口口口口 |①---|
口口口③ |----|
口①①② |②---|
口口口口 |③---|
26
③口口口 |①---|
②①①口 |----|
口口口口 |②---|
口口口口 |③---|
27
口①①口 |①---|
口②②口 |②---|
口口口口 |----|
口口口口 |----|
28
口口口口 |①---|
口口口口 |----|
①口口① |----|
口口口口 |----|
29
口③口口 |①---|
口②口口 |②---|
口①①口 |③---|
口口口口 |----|
30
口口口口 |①---|
口口口口 |----|
①口口① |----|
口口口口 |----|
31
口口③口 |①---|
口口②口 |②---|
口①①口 |③---|
口口口口 |----|
32
口口口口 |①---|
①口口① |----|
口口口口 |----|
口口口口 |----|
33
口口口口 |①---|
口①①口 |②---|
口②口口 |③---|
口③口口 |----|
34
口口口口 |①---|
①口口① |----|
口口口口 |----|
口口口口 |----|
35
口口口口 |①---|
口①①口 |②---|
口口②口 |③---|
口口③口 |----|
36
口口口口 |①---|
②口口④ |②---|
口①③口 |③---|
口口口口 |④---|
37
②①①② |①---|
口③③口 |②---|
④口口④ |③---|
口口口口 |④---|
38
①口口① |----|
口口口口 |①---|
口口口口 |----|
口口口口 |----|
39
口口口口 |----|
口口口口 |----|
口口口口 |----|
口口口口 |----|
40
口口口口 |----|
口口口口 |----|
口口口口 |----|
口口口口 |----|
41
口口口口 |①---|
③④口口 |②---|
②口口口 |③---|
①口口口 |④---|
42
②①①② |①---|
口口口口 |----|
口口口口 |②---|
口口口口 |----|
43
口口口口 |①---|
口口④③ |②---|
口口口② |③---|
口口口① |④---|
44
②①①② |①---|
口口口口 |----|
口口口口 |②---|
口口口口 |----|
45
口口口口 |①---|
口口口口 |②---|
口④②口 |③---|
口③①口 |④---|
46
口④②口 |①---|
口③①口 |②---|
口口口口 |③---|
口口口口 |④---|
47
①口口① |①---|
口口口口 |----|
口口口口 |----|
口口口口 |----|
48
口口口口 |①---|
口①①口 |----|
口口口口 |----|
口口口口 |----|
49
口口口口 |①---|
③④口口 |②---|
②口口口 |③---|
①口口口 |④---|
50
②①①② |①---|
口口口口 |----|
口口口口 |②---|
口口口口 |----|
51
口口口口 |①---|
口口④③ |②---|
口口口② |③---|
口口口① |④---|
52
②①①② |①---|
口口口口 |----|
口口口口 |②---|
口口口口 |----|
53
口口口口 |①---|
口口口口 |②---|
口④②口 |③---|
口③①口 |④---|
54
口④②口 |①---|
口③①口 |②---|
口口口口 |③---|
口口口口 |④---|
55
①口口① |①---|
口口口口 |----|
口口口口 |----|
口口口口 |----|
56
口口口口 |①---|
口①①口 |----|
口口口口 |----|
口口口口 |----|
57
口口口口 |①---|
口口口口 |----|
①口口① |----|
口口口口 |----|
58
口③口口 |①---|
口②口口 |②---|
口①①口 |③---|
口口口口 |----|
59
口口口口 |①---|
口口口口 |----|
①口口① |----|
口口口口 |----|
60
口口③口 |①---|
口口②口 |②---|
口①①口 |③---|
口口口口 |----|
61
口口口口 |①---|
①口口① |----|
口口口口 |----|
口口口口 |----|
62
口口口口 |①---|
口①①口 |②---|
口②口口 |③---|
口③口口 |----|
63
口口口口 |①---|
①口口① |----|
口口口口 |----|
口口口口 |----|
64
口口口口 |①---|
口①①口 |②---|
口口②口 |③---|
口口③口 |----|
65
口口口口 |①---|
②口口④ |②---|
口①③口 |③---|
口口口口 |④---|
66
②①①② |①---|
口③③口 |②---|
④口口④ |③---|
口口口口 |④---|
67
①口口① |----|
口口口口 |①---|
口口口口 |----|
口口口口 |----|
68
口口口口 |----|
口口口口 |----|
口口口口 |----|
口口口口 |----|
69
口口口口 |①---|
②口口④ |②---|
口①③口 |③---|
口口口口 |④---|
70
②①①② |①---|
口③③口 |②---|
④口口④ |③---|
口口口口 |④---|
71
①口口① |----|
口口口口 |①---|
口口口口 |----|
口口口口 |----|


不確定度: 0

最終更新:2013年05月27日 21:07