HEKIREKI
LAST ALLIANCE

ADVANCED

Level: 5
BPM: 260
Notes: 347

1
口口口口 |----|
口口口口 |----|
口口口口 |----|
口口口口 |----|
2
口口口口 |----|
①口口① |①---|
口口口口 |----|
口口口口 |----|
3
口口口口 |----|
口口口口 |-----①--|
口①①口 |----|
口口口口 |----|
4
①口口① |----|
口口口口 |----|
口口口口 |-①------|
口口口口 |----|
5
口口口口 |----|
口口口口 |----|
口①①口 |---①|
口口口口 |----|
6
口口口口 |----|
①口口① |----|
口口口口 |----|
口口口口 |---①----|
7
口口口口 |----|
口口口口 |----|
口口口口 |----|
口口口口 |----|
8
口口口口 |①---|
口口口口 |----|
口①①口 |----|
口口口口 |----|
9
口口口口 |-----①--|
①口口① |----|
口口口口 |----|
口口口口 |----|
10
口口口口 |----|
口①①口 |-①------|
②口口② |----|
口口口口 |--②-|
11
口口口口 |----|
口口口口 |-------①|
口口口口 |----|
口①①口 |----|
12
口口口口 |--①-|
①①①① |----|
口口口口 |----|
口口口口 |----|
13
口口口口 |----|
口口口口 |----|
口口口口 |----|
口口口口 |----|
14
口口口口 |----|
口口口口 |----|
口口口口 |----|
口口口口 |----|
15
口口口口 |----|
口口口口 |----|
口口口口 |----|
口口口口 |----|
16
口口口口 |----|
口口口口 |----|
口口口口 |----|
口口口口 |----|
17
口口口口 |----|
口口口口 |----|
口口口口 |----|
口口口口 |----|
18
口口口口 |----|
口口口口 |----|
口口口口 |----|
口口口口 |----|
19
①①口口 |----|
口口口口 |----|
口口口口 |----|
口口口口 |--①-|
20
口口口口 |----|
口口①口 |①---|
②②口① |----|
口口口口 |②---|
21
口口①口 |----|
口口口① |①---|
口口口口 |----|
②口口② |②---|
22
口口口口 |----|
②口口② |①---|
口①①口 |----|
口口口口 |②---|
23
②①①② |----|
口口口口 |①---|
口口口口 |----|
口口口口 |②---|
24
口口口口 |----|
口口①口 |①---|
②②口① |----|
口口口口 |②---|
25
口口①口 |----|
口口口① |①---|
口口口口 |----|
②口口② |②---|
26
口口口口 |----|
②②②② |①---|
口①①口 |----|
口口口口 |②---|
27
①①口口 |----|
口口口口 |----|
口口口口 |----|
口口口口 |--①-|
28
口口口口 |----|
口口①口 |①---|
②②口① |----|
口口口口 |②---|
29
口口①口 |----|
口口口① |①---|
口口口口 |----|
②口口② |②---|
30
口口口口 |----|
②口口② |①---|
口①①口 |----|
口口口口 |②---|
31
②①①② |----|
口口口口 |①---|
口口口口 |----|
口口口口 |②---|
32
口口口口 |----|
口口①口 |①---|
②②口① |----|
口口口口 |②---|
33
口口①口 |----|
口口口① |①---|
口口口口 |----|
②口口② |②---|
34
口口口口 |----|
②②②② |①---|
口①①口 |----|
口口口口 |②---|
35
口口口口 |----|
口口口口 |----|
口①①口 |----|
口口口口 |①---|
36
口口口口 |----|
口口口口 |----|
口口口口 |----|
①①①① |①---|
37
口①口② |----|
口口③口 |----|
口口口口 |①-②-|
口口口口 |--③-|
38
⑤口口口 |----|
①②口口 |①-②-|
口口③④ |③-④-|
口口口口 |--⑤-|
39
口口①口 |----|
口口②④ |①-②-|
口③口口 |③---|
口口口口 |④---|
40
①口口① |①---|
口②③口 |--②-|
口③②口 |----|
口口口口 |③---|
41
口口口口 |----|
③口口口 |----|
口口口口 |①-②-|
口①②口 |--③-|
42
④口②口 |----|
口口口③ |①---|
口口①口 |②-③-|
口口口口 |--④-|
43
口②③① |----|
口③②口 |①---|
口口口口 |②---|
口口口口 |③---|
44
口口口口 |①---|
①口口① |--②-|
口②②口 |----|
③口口③ |③---|
45
口①口② |----|
口口③口 |----|
口口口口 |①-②-|
口口口口 |--③-|
46
⑤口口口 |----|
①②口口 |①-②-|
口口③④ |③-④-|
口口口口 |--⑤-|
47
口口①口 |----|
口口②④ |①-②-|
口③口口 |③---|
口口口口 |④---|
48
①口口① |①---|
口②③口 |--②-|
口③②口 |----|
口口口口 |③---|
49
口口口口 |----|
③口口口 |----|
口口口口 |①-②-|
口①②口 |--③-|
50
口④口口 |----|
口口③⑤ |①-②-|
口②口① |③-④-|
口口口口 |--⑤-|
51
口口口口 |----|
口①口口 |①---|
④口口② |②---|
口③口口 |③-④-|
52
口⑤口④ |①---|
①口③口 |②-③-|
口口②口 |--④-|
口口口口 |--⑤-|
53
①口②口 |----|
口口口口 |----|
口③口口 |①-②-|
口口口口 |--③-|
54
⑤口口口 |----|
①②口口 |①-②-|
口口③④ |③-④-|
口口口口 |--⑤-|
55
口口①口 |----|
口口②④ |①-②-|
口③口口 |③---|
口口口口 |④---|
56
①口口① |①---|
口②③口 |--②-|
口③②口 |----|
口口口口 |③---|
57
口口口口 |----|
③口口口 |----|
口口口口 |①-②-|
口①②口 |--③-|
58
④口②口 |----|
口口口③ |①---|
口口①口 |②-③-|
口口口口 |--④-|
59
口②③① |----|
口③②口 |①---|
口口口口 |②---|
口口口口 |③---|
60
口口口口 |①---|
①口口① |--②-|
口②②口 |----|
③口口③ |③---|
61
口①口② |----|
口口③口 |----|
口口口口 |①-②-|
口口口口 |--③-|
62
⑤口口口 |----|
①②口口 |①-②-|
口口③④ |③-④-|
口口口口 |--⑤-|
63
口口①口 |----|
口口②④ |①-②-|
口③口口 |③---|
口口口口 |④---|
64
①口口① |①---|
口②③口 |--②-|
口③②口 |----|
口口口口 |③---|
65
口口口口 |----|
③口口口 |----|
口口口口 |①-②-|
口①②口 |--③-|
66
②④口口 |----|
口口口口 |①---|
口口③① |②-③-|
口口口⑤ |④-⑤-|
67
⑦口口④ |①-②-|
①③口② |③-④-|
⑤口口口 |⑤-⑥-|
口口⑥口 |⑦---|
68
口口①④ |①---|
口口③口 |②-③-|
口⑤口② |--④-|
口口口口 |--⑤-|
69
口口口口 |----|
口口口口 |----|
①口口② |①---|
口口口口 |②---|
70
口口口口 |①---|
口口①口 |----|
口口口口 |②---|
②口口口 |----|
71
口口口口 |①---|
口①口口 |----|
口口口③ |②---|
口口口② |③---|
72
②③口口 |①---|
口口①口 |②-③-|
口口口口 |----|
口口口口 |----|
73
口口口口 |----|
口口口口 |----|
①口口② |①---|
口口口口 |②---|
74
口口口口 |①---|
口口①口 |----|
口口口口 |②---|
②口口口 |----|
75
口口口口 |①---|
口①口口 |----|
口口③口 |②---|
口口口② |③---|
76
①口口口 |----|
②口口口 |①---|
口③口口 |②---|
口口口口 |③---|
77
②③口① |----|
口口口口 |①---|
口口口口 |②---|
口口口口 |③---|
78
口口口口 |①---|
④口②口 |②---|
口③口① |③---|
口口口口 |④---|
79
口口①口 |----|
口口口口 |①---|
②口口口 |----|
口口口口 |②---|
80
口口④口 |①---|
口①口③ |②---|
口口②口 |③---|
口口口口 |④---|
81
①口口口 |----|
口口口口 |①---|
口口②口 |②---|
口口口③ |③---|
82
口口口口 |----|
口口口口 |----|
①口口② |①---|
口口口口 |②---|
83
口③口口 |①---|
①口口② |②---|
口口口口 |----|
口口口口 |③---|
84
口口口口 |①---|
口口①口 |----|
口口口口 |②---|
口②③口 |③---|
85
口口口④ |①---|
口口③口 |②---|
口②口口 |③---|
口口口① |④---|
86
口②②口 |①---|
①①口口 |②---|
口口③③ |----|
口口口口 |③---|
87
口口口口 |①---|
口口口口 |----|
口③口口 |②---|
①①②口 |③---|
88
口口②② |①---|
①口口口 |②---|
口口口口 |----|
③③口口 |③---|
89
口口口口 |①---|
口③口口 |----|
②口①① |②---|
口口口口 |③---|
90
②口①口 |①---|
②口③口 |②---|
口口③口 |----|
口口口口 |③---|
91
口口口口 |①---|
口口口口 |----|
口③口① |②---|
②口口① |③---|
92
②口口口 |----|
口口口① |①---|
口口口口 |----|
口口口口 |②---|
93
口口口① |----|
口口②口 |①---|
③口口口 |②---|
口④口口 |③-④-|
94
口口④口 |----|
口口口③ |①---|
口①②口 |②---|
口口口口 |③-④-|
95
①口口口 |----|
口②③口 |①---|
口口口口 |②---|
口口口口 |③---|
96
口口口口 |----|
口口口口 |①---|
①口③口 |②---|
口②口口 |③---|
97
口口口① |----|
口口②口 |①---|
口③口口 |②---|
口口口口 |③---|
98
口口口口 |----|
口口口口 |①-②-|
①口⑤② |③-④-|
③口口④ |⑤---|
99
口①①口 |----|
②口口② |①---|
③口口③ |②---|
口口口口 |③---|
100
口口口口 |①---|
口口口口 |----|
口口口口 |----|
口①①口 |----|


不确定度: 0

最終更新:2012年11月08日 04:15