グローランプ
banbi

BASIC

Level: 3
BPM: 230
Notes: 208

1
口口口口 |----|
口口口口 |----|
口口口口 |----|
口口口口 |----|
2
口口口口 |----|
口口口口 |----|
口口口口 |----|
口口口口 |----|
3
口口口口 |----|
口口口口 |----|
口口口口 |----|
口口口口 |----|
4
口口口口 |----|
口口口口 |----|
口①①口 |①---|
口口口口 |----|
5
口口口口 |----|
口口口③ |①---|
口口②口 |②---|
口口口① |③---|
6
口口①② |①---|
口口③口 |②---|
口口口口 |③---|
口口口口 |----|
7
口口口口 |----|
③口口口 |①---|
口②口口 |②---|
①口口口 |③---|
8
②①口口 |①---|
口③口口 |②---|
口口口口 |③---|
口口口口 |----|
9
口口口口 |①---|
口口口口 |----|
口口口口 |②---|
口②①口 |----|
10
口口口口 |①---|
口口口口 |----|
口②①口 |②---|
口口口口 |----|
11
口口①口 |①---|
口口②口 |----|
口口口口 |②---|
口口口口 |----|
12
口①口口 |①---|
口②口口 |②---|
口③口口 |③---|
口口口口 |----|
13
口口口口 |----|
口口口③ |①---|
口口②口 |②---|
口口口① |③---|
14
口口①② |①---|
口口③口 |②---|
口口口口 |③---|
口口口口 |----|
15
口口口口 |----|
③口口口 |①---|
口②口口 |②---|
①口口口 |③---|
16
②①口口 |①---|
口③口口 |②---|
口口口口 |③---|
口口口口 |----|
17
口口口口 |①---|
口口口口 |----|
口口口口 |②---|
口②①口 |----|
18
口口口口 |①---|
口口口口 |----|
口②①口 |②---|
口口口口 |----|
19
口口①口 |①---|
口口②口 |----|
口口口口 |②---|
口口口口 |----|
20
口①口口 |①---|
口②口口 |②---|
口③④口 |③---|
口口口口 |④---|
21
口①①口 |①---|
口口口口 |----|
口口口口 |----|
口口口口 |----|
22
口口口口 |----|
口口口口 |----|
口口口口 |----|
口口口口 |----|
23
口口口口 |①---|
口口口口 |----|
口口口口 |②---|
口②①口 |----|
24
口口口口 |①---|
口口口口 |----|
口②①口 |②---|
口口口口 |----|
25
口口口口 |①---|
口①①口 |----|
口口口口 |----|
口口口口 |----|
26
口口口口 |①---|
口口口口 |----|
口口口口 |②---|
口口②① |----|
27
口口口口 |①---|
口口口口 |----|
口口口口 |②---|
②①口口 |----|
28
口口口口 |①---|
口口口口 |----|
②①①口 |②---|
口口口口 |----|
29
口口口口 |①---|
口①口口 |----|
口口②口 |②---|
口口口口 |----|
30
口口口口 |----|
口口口口 |----|
口口口① |①---|
口口口口 |----|
31
口口口口 |①---|
口口①口 |----|
口②口口 |②---|
口口口口 |----|
32
口口口口 |----|
口口口口 |----|
口口口口 |----|
口口口口 |----|
33
口口口口 |----|
口口口口 |----|
口口口口 |----|
口口口口 |----|
34
口口口口 |①---|
口口口口 |----|
①②口口 |②---|
口口口口 |----|
35
口口口口 |①---|
口口口口 |----|
口口①② |②---|
口口口口 |----|
36
口口口口 |①---|
口①①口 |----|
②口口口 |②---|
口口口口 |----|
37
口口口口 |①---|
口口口口 |----|
口口②口 |②---|
口①口口 |----|
38
口口口口 |----|
口口口口 |----|
口口口① |①---|
口口口口 |----|
39
口口口口 |①---|
口口口口 |----|
口②口口 |②---|
口口①口 |----|
40
口口口口 |①---|
口口①口 |----|
口口口② |②---|
口口口口 |----|
41
口口口口 |①---|
口口口口 |----|
口口口口 |----|
口口①口 |----|
42
口①①口 |①---|
口口口口 |----|
口口口口 |----|
口口口口 |----|
43
口口口口 |①---|
口口口口 |----|
口①①口 |----|
口口口口 |----|
44
口口口口 |----|
口口口① |----|
口口口口 |①---|
口口口口 |----|
45
口口①口 |①---|
口②口口 |----|
口口口口 |②---|
口口口口 |----|
46
口口口口 |----|
①口口口 |----|
口口口口 |①---|
口口口口 |----|
47
口①口口 |①---|
口口②口 |----|
口口口口 |②---|
口口口口 |----|
48
口口口口 |----|
口口口口 |----|
口口口口 |----|
口口口口 |----|
49
口口口口 |----|
口口口口 |----|
口口口口 |----|
口口口口 |----|
50
口口口口 |①---|
口口口口 |----|
口口口口 |----|
口①①口 |----|
51
口口口口 |①---|
口①①口 |----|
口口口口 |----|
口口口口 |----|
52
口口口口 |----|
口口口口 |----|
口口口① |①---|
口口口口 |----|
53
口口口口 |①---|
口口口口 |----|
口②口口 |②---|
口口①口 |----|
54
口口口口 |----|
口口口口 |----|
①口口口 |①---|
口口口口 |----|
55
口口口口 |①---|
口口口口 |----|
口口②口 |②---|
口①口口 |----|
56
口口口口 |----|
口口口口 |----|
口口口口 |----|
口口口口 |----|
57
①口口① |①---|
口口口口 |----|
口口口口 |----|
口口口口 |----|
58
口口口口 |①---|
口口口口 |----|
口①①口 |----|
口口口口 |----|
59
口口口口 |①---|
口口口口 |----|
口口口口 |----|
①口口① |----|
60
口口口口 |①---|
口①①口 |----|
口口口口 |----|
口口口口 |----|
61
口口口口 |①---|
口口口口 |----|
口①①口 |----|
口口口口 |----|
62
①口口① |①---|
口口口口 |----|
口口口口 |----|
口口口口 |----|
63
口口口口 |①---|
口口口口 |----|
①口口① |----|
口口口口 |----|
64
口口口口 |----|
口口口口 |----|
口口口口 |①---|
口①①口 |----|
65
口口口口 |①---|
口口口口 |----|
口①①口 |----|
口口口口 |----|
66
①①①① |①---|
口口口口 |----|
口③②口 |②---|
口口口口 |③---|
67
口口口口 |①---|
④③②① |②---|
口口口口 |③---|
口口口口 |④---|
68
口②②口 |①---|
口口口口 |----|
口①①口 |②---|
口口口口 |----|
69
口口口口 |①---|
口口口口 |②---|
①②③④ |③---|
口口口口 |④---|
70
口口口口 |①---|
口②②口 |----|
口口口口 |②---|
口①①口 |----|
71
④③②① |①---|
口口口口 |②---|
口口口口 |③---|
口口口口 |④---|
72
口口口口 |①---|
④③②① |②---|
口口口口 |③---|
口口口口 |④---|
73
口口口口 |①---|
口口口口 |②---|
④③②① |③---|
口口口口 |④---|
74
口口口口 |①---|
口①①口 |----|
口口口口 |②---|
口②②口 |----|
75
口口口口 |①---|
口口口口 |②---|
④③②① |③---|
口口口口 |④---|
76
口口口口 |①---|
口①①口 |----|
口口口口 |②---|
口②②口 |----|
77
口口口口 |①---|
①②③④ |②---|
口口口口 |③---|
口口口口 |④---|
78
口①①口 |①---|
口口口口 |----|
口②②口 |②---|
口口口口 |----|
79
④③②① |①---|
口口口口 |②---|
口口口口 |③---|
口口口口 |④---|
80
口口口口 |①---|
④③②① |②---|
口口口口 |③---|
口口口口 |④---|
81
口口口口 |①---|
口口口口 |②---|
④③②① |③---|
口口口口 |④---|
82
口口口口 |①---|
口①①口 |----|
口口口口 |②---|
口②②口 |----|
83
口①①口 |①---|
口口口口 |----|
口口口口 |----|
口口口口 |----|
84
②口口② |----|
口口口口 |----|
口①①口 |①---|
口口口口 |--②-|
85
口口口口 |----|
口口口口 |----|
口口口口 |----|
口口口口 |----|
86
口口口口 |----|
口口口口 |----|
口口口口 |----|
口口口口 |----|
87
口口口口 |①---|
口口口口 |----|
口口口口 |②---|
口②①口 |----|
88
口口口口 |①---|
口口口口 |----|
口②①口 |②---|
口口口口 |----|
89
口口口② |①---|
口口口① |----|
口口口口 |②---|
口口口口 |----|
90
①口口口 |①---|
②口口口 |----|
口口口口 |②---|
口口口口 |----|
91
口口口口 |①---|
口口口口 |----|
口①①口 |----|
口口口口 |----|
92
①①①① |①---|
口口口口 |----|
口口口口 |----|
口口口口 |----|


不確定度: 0

最終更新:2013年05月27日 21:02