グローランプ
banbi

ADVANCED

Level: 6
BPM: 230
Notes: 401

1
口口口口 |----|
口口口口 |----|
口口口口 |----|
口口口口 |----|
2
口口口口 |----|
口口口口 |----|
口口口口 |----|
口口口口 |----|
3
口口口口 |①---|
口口④口 |--②-|
口③②口 |--③-|
口①①口 |--④-|
4
②②口口 |----|
①①口口 |----|
口口口口 |①-②-|
口口③③ |--③-|
5
口口口③ |----|
口口②口 |①---|
口口口① |②---|
口口口口 |③---|
6
口口①口 |①---|
口口口② |②---|
口口③③ |③-④-|
⑤⑤④④ |--⑤-|
7
③口口口 |----|
口②口口 |①---|
①口口口 |②---|
口口口口 |③---|
8
口①口口 |①---|
②口口口 |②---|
③③口口 |③-④-|
④④口口 |----|
9
口口口口 |----|
口口口口 |①-②-|
口口④③ |--③-|
口口②① |④---|
10
口⑤④③ |①-②-|
口口②① |--③-|
口⑤口口 |④---|
口口口口 |⑤---|
11
口口口口 |①---|
口②③① |--②-|
口口口④ |③---|
口口口④ |--④-|
12
口口口口 |--①-|
口③口③ |--②-|
口①②口 |③---|
口①④④ |--④-|
13
口口口③ |----|
口口②口 |①---|
口口口① |②---|
口口口口 |③---|
14
口口①口 |①---|
口口口② |②---|
口口③③ |③-④-|
⑤⑤④④ |--⑤-|
15
③口口口 |----|
口②口口 |①---|
①口口口 |②---|
口口口口 |③---|
16
口①口口 |①---|
②口口口 |②---|
③③口口 |③-④-|
④④口口 |----|
17
口口口口 |----|
口口口口 |①-②-|
口口④③ |--③-|
口口②① |④---|
18
口⑤④③ |①-②-|
口口②① |--③-|
口⑤口口 |④---|
口口口口 |⑤---|
19
口口口口 |①---|
口②③① |--②-|
口口口④ |③---|
口口口④ |--④-|
20
口④口④ |--①-|
口口③口 |--②-|
口①②口 |③---|
口①口口 |④---|
21
口口口口 |①---|
口①口① |----|
口口口口 |②---|
口口②口 |----|
22
口口口口 |①---|
口口口口 |----|
口②①口 |②---|
口口口口 |----|
23
口口口口 |①---|
口口口口 |----|
口口口口 |②---|
口①②口 |----|
24
口口口口 |①---|
口口口口 |----|
口②①口 |②---|
口口口口 |----|
25
口口口口 |①---|
口口口口 |----|
口口③② |----|
口①①口 |②-③-|
26
口口口③ |①-②-|
①②④口 |--③-|
口⑤口口 |--④-|
口口口口 |--⑤-|
27
口口口口 |----|
口④口口 |①-②-|
口口③口 |--③-|
口②①口 |--④-|
28
口①口① |----|
②口②口 |----|
口口口口 |①---|
口口口口 |②---|
29
口口口口 |①---|
口口口口 |--②-|
口①口① |③---|
口③②口 |----|
30
①口①口 |----|
口②口② |----|
口口口口 |①---|
口口口口 |②---|
31
口口口口 |①---|
口口口口 |--②-|
①口①口 |③---|
口②③口 |----|
32
口口口口 |----|
口口口口 |----|
口口口口 |----|
口口口口 |----|
33
口口口口 |----|
口口口口 |----|
①②口口 |----|
口口口口 |①-②-|
34
③口口口 |①-②-|
口④②① |--③-|
口口⑤口 |--④-|
口口口口 |--⑤-|
35
口口口口 |----|
口口④口 |①-②-|
口③口口 |--③-|
口①②口 |--④-|
36
①口①口 |----|
口②口② |----|
口口口口 |①---|
口口口口 |②---|
37
口口口口 |①---|
口口口口 |--②-|
①口①口 |③---|
口②③口 |----|
38
口①口① |----|
②口②口 |----|
口口口口 |①---|
口口口口 |②---|
39
口④④口 |①---|
口口口口 |--②-|
口①口① |③---|
口③②口 |--④-|
40
口口口口 |--①-|
⑤④③② |--②-|
口①①口 |③-④-|
口口口口 |⑤---|
41
口口口口 |----|
口口口口 |----|
口口口② |----|
口口口① |①-②-|
42
口口口② |①-②-|
口④口① |--③-|
⑤口③口 |--④-|
口口口口 |--⑤-|
43
口口口口 |----|
口口口口 |----|
口口口口 |----|
口口口口 |----|
44
口口口口 |----|
口口口口 |----|
口④③口 |①-②-|
口②①口 |③-④-|
45
口②③口 |①---|
口口①口 |--②-|
口口口口 |③---|
口口口口 |----|
46
口口口口 |----|
口②①口 |----|
口①②口 |①---|
口口口口 |②---|
47
口①①口 |①---|
口口口口 |--②-|
②口口② |③---|
③口口③ |----|
48
口口口口 |----|
口口口口 |----|
口口口口 |----|
口口口口 |----|
49
口口口口 |----|
口口口口 |----|
②口口口 |----|
①口口口 |①-②-|
50
②口口口 |①-②-|
①口④口 |--③-|
口③口⑤ |--④-|
口口口口 |--⑤-|
51
口口口口 |----|
口口口口 |----|
口口口口 |----|
口口口口 |----|
52
口口口口 |----|
口口口① |----|
口口②口 |①---|
口口口口 |②---|
53
口口②口 |①---|
口①③口 |--②-|
口口口口 |③---|
口口口口 |----|
54
口口口口 |----|
口口口口 |----|
口①①口 |①---|
口口口口 |----|
55
口①①口 |①---|
口口口口 |--②-|
②口口② |③---|
③口口③ |----|
56
口口口口 |----|
口口口口 |----|
口口口口 |----|
口口口口 |----|
57
①①①① |①---|
口口口口 |----|
口口口口 |----|
口口口口 |----|
58
口口口口 |①---|
口口口口 |----|
口①①口 |----|
口口口口 |----|
59
口①①口 |①---|
口①①口 |----|
口口口口 |----|
口口口口 |----|
60
口口口口 |①---|
口口口口 |----|
口口口口 |----|
①①①① |----|
61
①①①① |①---|
口口口口 |----|
口口口口 |----|
口口口口 |----|
62
口口口口 |①---|
口口口口 |----|
口口口口 |----|
①口口① |----|
63
口口口口 |①---|
口①①口 |----|
口①①口 |----|
口口口口 |----|
64
口口口口 |----|
口口口口 |----|
口口口口 |①---|
口②①口 |②---|
65
口口口口 |①---|
口口口口 |②---|
口②①口 |----|
口③③口 |③---|
66
①口口① |①---|
口①①口 |----|
④③②口 |②-③-|
口口⑤⑤ |④-⑤-|
67
③口口② |----|
③口口② |①---|
口口口口 |②---|
①①口口 |③---|
68
口口口口 |①-②-|
口④③口 |③-④-|
⑥②①⑤ |--⑤-|
口口口口 |--⑥-|
69
④口口③ |----|
④口口③ |①---|
口口口口 |②---|
②②①① |③-④-|
70
口口口口 |①-②-|
口④③口 |③-④-|
⑥②①⑤ |--⑤-|
口口口口 |--⑥-|
71
口②②口 |----|
口③③口 |①---|
口①①口 |②---|
口口口口 |③---|
72
口口口口 |①---|
口口口口 |②---|
②口口① |③---|
②④③① |④---|
73
口口口口 |①---|
②口口① |②---|
口④③口 |③---|
口口口口 |④---|
74
①口口① |①---|
口①①口 |----|
口④③② |②-③-|
口口⑤⑤ |④-⑤-|
75
③口口② |----|
③口口② |①---|
口口口口 |②---|
①①口口 |③---|
76
口口口口 |①-②-|
口④③口 |③-④-|
⑥②①⑤ |--⑤-|
口口口口 |--⑥-|
77
④口口③ |----|
④口口③ |①---|
口口口口 |②---|
②②①① |③-④-|
78
口口口口 |①-②-|
口④③口 |③-④-|
⑥②①⑤ |--⑤-|
口口口口 |--⑥-|
79
口②②口 |----|
口③③口 |①---|
口①①口 |②---|
口口口口 |③---|
80
口口口口 |①---|
口口口口 |②---|
②④③① |③---|
②④③① |④---|
81
口口口口 |①---|
②口口① |②---|
②④③① |③---|
④口口③ |④---|
82
①口口① |①---|
④①①④ |----|
口口口口 |②-③-|
口③②口 |--④-|
83
口①①口 |----|
口口口口 |①---|
口口口口 |----|
口口口口 |----|
84
口口口① |①---|
口口②口 |②---|
口口口③ |③-④-|
⑤⑤口④ |--⑤-|
85
③口口口 |----|
口②口口 |①---|
①口口口 |②---|
口口口口 |③---|
86
口①口口 |①---|
②口口口 |②---|
③③口口 |③-④-|
④④口口 |----|
87
口口口口 |----|
口口口口 |①-②-|
口口④③ |--③-|
口口②① |④---|
88
口⑤④③ |①-②-|
口口②① |--③-|
口⑤口口 |④---|
口口口口 |⑤---|
89
口口口口 |①---|
口②口① |--②-|
口口口③ |----|
口口口口 |③---|
90
口③③③ |--①-|
口口②口 |----|
口①②口 |②---|
口口口口 |③---|
91
口口口口 |①---|
口口口口 |----|
口口口口 |----|
口①①① |----|
92
口①①① |①---|
口①口① |----|
口口口口 |----|
口口口口 |----|


不確定度: 0

最終更新:2013年05月27日 21:00