がんばれよ
TEE

BASIC

Level: 3
BPM: 146
Notes: 233

1
口口口口 |----|
口口口口 |----|
口口口口 |----|
口口口口 |----|
2
口口口口 |①---|
口口口口 |----|
口①①口 |----|
口口口口 |----|
3
口口口口 |①---|
①口②③ |②-③-|
口口口口 |----|
口口口口 |----|
4
口口口口 |①---|
口口口口 |----|
口①①口 |----|
口口口口 |----|
5
口口口口 |①---|
①口②③ |②-③-|
口口口口 |----|
口口口口 |----|
6
口口口口 |①---|
口口口口 |----|
口口口口 |----|
口①①口 |----|
7
口口口口 |①---|
③②口① |②-③-|
口口口口 |----|
口口口口 |----|
8
口口口口 |①---|
口①①口 |----|
口口口口 |----|
口口口口 |----|
9
口口口口 |①---|
①口口① |----|
口口口口 |②---|
②口口② |----|
10
口口口口 |①---|
口口口口 |----|
口①①口 |----|
口口口口 |----|
11
口口④⑤ |①---|
①口②③ |②-③-|
口口口口 |--④-|
口口口口 |⑤---|
12
口口口口 |①---|
口口口口 |----|
口①①口 |----|
口口口口 |----|
13
⑤④口口 |①---|
③②口① |②-③-|
口口口口 |--④-|
口口口口 |⑤---|
14
口口口口 |①---|
口口口口 |----|
口①①口 |----|
口口口口 |----|
15
口口④⑤ |①---|
①口②③ |②-③-|
口口口口 |--④-|
口口口口 |⑤---|
16
口口口口 |①---|
口①①口 |----|
口口口口 |----|
口口口口 |----|
17
口口口口 |①---|
①口口① |----|
口口口口 |②---|
②口口② |----|
18
口口口口 |①---|
①口口口 |②---|
①②③④ |③---|
口口口口 |④---|
19
口口口口 |①---|
口口口口 |②---|
①②③④ |③---|
口口口口 |④---|
20
口口口口 |①---|
①口口口 |②---|
①②③④ |③---|
口口口口 |④---|
21
口口口口 |①---|
口口口口 |②---|
①②③④ |③---|
口口口口 |④---|
22
口口口口 |①---|
①口口口 |②---|
①②③④ |③---|
口口口口 |④---|
23
口口口口 |①---|
口口口口 |②---|
①②③④ |③---|
口口口口 |④---|
24
口口口口 |①---|
①口口口 |②---|
①②③④ |③---|
口口口口 |④---|
25
口口口口 |①---|
口②②口 |②---|
口③③口 |③---|
口①①口 |----|
26
口口口口 |①---|
②口口口 |----|
口口口口 |②---|
①口口口 |----|
27
口口③口 |①---|
口②口口 |②---|
口口①口 |③---|
口口口口 |----|
28
口口口口 |①---|
口口口② |----|
口口口口 |②---|
口口口① |----|
29
口①口口 |①---|
口口②口 |②---|
口③口口 |③---|
口口口口 |----|
30
口口口口 |①---|
②口口口 |----|
口口口口 |②---|
①口口口 |----|
31
口③口口 |①---|
口口②口 |②---|
口①口口 |③---|
口口口口 |----|
32
口口口口 |①---|
口口口② |----|
口口口口 |②---|
口口口① |----|
33
口口口口 |①---|
口②③口 |②---|
口①④口 |③---|
口口口口 |④---|
34
口口口口 |①---|
②口口口 |----|
口口口口 |②---|
①口口口 |----|
35
口口③口 |①---|
口口②口 |②---|
口口①口 |③---|
口口口口 |----|
36
口口口口 |①---|
口口口② |----|
口口口口 |②---|
口口口① |----|
37
口③口口 |①---|
口②口口 |②---|
口①口口 |③---|
口口口口 |----|
38
口口口口 |①---|
②②口口 |----|
①①口口 |②---|
口口口口 |----|
39
口口口口 |①---|
口口②② |----|
口口①① |②---|
口口口口 |----|
40
口①②口 |①---|
口③④口 |②---|
口口口口 |③---|
口口口口 |④---|
41
口口口口 |①---|
口口口口 |②---|
③④④③ |③---|
②①①② |④---|
42
口口口口 |①---|
②口口② |----|
口口口口 |②---|
口①①口 |----|
43
口口口口 |①---|
②口口② |----|
口口口口 |②---|
口①①口 |----|
44
口口口口 |①---|
口口口口 |----|
口口口口 |②---|
①②②① |----|
45
口③④口 |①---|
口②口口 |②---|
口①口口 |③---|
口口口口 |④---|
46
口口口口 |①---|
口口②口 |----|
口①①口 |②---|
口口口口 |----|
47
口口口口 |①---|
口②口口 |----|
口①①口 |②---|
口口口口 |----|
48
口口口口 |①---|
④口口② |②---|
③口口① |③---|
口口口口 |④---|
49
口口口口 |①---|
口②③口 |②---|
口①④口 |③---|
口口口口 |④---|
50
口口口口 |①--②|
③口口③ |--③-|
②口口② |----|
①口口① |----|
51
口口口口 |①---|
口②②口 |----|
口①①口 |②---|
口口口口 |----|
52
口口口口 |①--②|
③口口③ |--③-|
②口口② |----|
①口口① |----|
53
口口口口 |①---|
口②②口 |----|
口①①口 |②---|
口口口口 |----|
54
口口口口 |①---|
口口②口 |----|
口口②口 |----|
①口口口 |②---|
55
口口口口 |①---|
口②口口 |----|
口②口口 |----|
口口口① |②---|
56
口口口口 |①---|
口口口口 |----|
①口②口 |②---|
口口口口 |----|
57
①口口④ |①---|
口②③口 |②---|
口口口口 |③---|
口口口口 |④---|
58
口口口口 |①--②|
③口口③ |--③-|
②口口② |----|
①口口① |----|
59
口口口口 |①---|
口②②口 |----|
口①①口 |②---|
口口口口 |----|
60
口口口口 |①--②|
③口口③ |--③-|
②口口② |----|
①口口① |----|
61
口口口口 |①---|
口②①口 |----|
口①②口 |②---|
口口口口 |----|
62
口口口口 |①---|
口口②口 |----|
口口②口 |----|
①口口口 |②---|
63
口口口口 |①---|
口②口口 |----|
口②口口 |----|
口口口① |②---|
64
口口口口 |①---|
口②②口 |----|
口口口口 |②---|
①口口① |----|
65
②口口② |①---|
口口口口 |----|
①口口① |②---|
口口口口 |----|


不確定度: 0

最終更新:2013年05月27日 20:41