PASSPORT
MEG

BASIC

Level: 3
BPM: 137
Notes: 315

1
口口口口 |----|
口口口口 |----|
口口口口 |----|
口口口口 |----|
2
口口口口 |----|
口口口口 |----|
口口口口 |----|
口口口口 |----|
3
③③①① |①---|
口口口口 |②---|
④口口② |③---|
口口口口 |④---|
4
口口口口 |①---|
③③①① |②---|
口口口口 |③---|
④口口② |④---|
5
①①③③ |①---|
口口口口 |②---|
口②④口 |③---|
口口口口 |④---|
6
②②②② |①---|
口口口口 |----|
口口口口 |②---|
口①①口 |----|
7
口口口口 |①---|
④口口② |②---|
口口口口 |③---|
③③①① |④---|
8
④口口② |①---|
口口口口 |②---|
③③①① |③---|
口口口口 |④---|
9
口口口口 |①---|
口口口口 |----|
口口口口 |②---|
①①②② |----|
10
③③③③ |①---|
口①①口 |②---|
口口口口 |③---|
口②②口 |----|
11
口口口口 |①---|
③③①① |②---|
口口口口 |③---|
④口口② |④---|
12
③③①① |①---|
口口口口 |②---|
④口口② |③---|
口口口口 |④---|
13
口口口口 |①---|
①①③③ |②---|
口口口口 |③---|
口②④口 |④---|
14
口口口口 |①---|
②②②② |----|
口①①口 |②---|
口口口口 |----|
15
口口口口 |①---|
④口口② |②---|
口口口口 |③---|
③③①① |④---|
16
④口口② |①---|
口口口口 |②---|
③③①① |③---|
口口口口 |④---|
17
口口口口 |①---|
口口口口 |----|
②②②② |②---|
①①①① |----|
18
口口口口 |①---|
口①①口 |----|
②口口② |②---|
口③③口 |③---|
19
①①①① |①---|
口口口口 |----|
口口口口
口口口口

口口③口
口口口②
口口口口 |②---|
口口口口 |③---|
20
口③口口 |①---|
②口①口 |----|
口口口口 |②---|
口口口口 |③---|
21
口口口口 |①---|
口①口口 |----|
口口口③ |②---|
口口②口 |③---|
22
口口口口 |①---|
口口口口 |----|
③口①口 |②---|
口②口口 |③---|
23
口口③口 |①---|
口口口② |----|
口①口口 |②---|
口口口口 |③---|
24
口③口口 |①---|
②口①口 |----|
口口口口 |②---|
口口口口 |③---|
25
口口口口 |①---|
口①口口 |----|
口口口③ |②---|
口口②口 |③---|
26
口口口口 |①---|
口口口口 |----|
③口①口 |②---|
口②口口 |③---|
27
口口口③ |①---|
口口口② |----|
口①①口 |②---|
口口口口 |③---|
28
口④①口 |①---|
口③②口 |②---|
口口口口 |③---|
口口口口 |④---|
29
①口口口 |①---|
口口口口 |----|
②口口口 |②---|
③口口口 |③---|
30
口口口口 |①---|
口口口口 |②---|
口②③口 |③---|
口①④口 |④---|
31
口口口口 |①---|
口口口② |----|
口口口③ |②---|
口口口① |③---|
32
口口口口 |①---|
口③②口 |②---|
口④①口 |③---|
口口口口 |④---|
33
口口口口 |①---|
口口口口 |----|
①口口口 |②---|
口③②口 |③---|
34
口口口口 |①---|
口④③口 |②---|
口①②口 |③---|
口口口口 |④---|
35
口①口② |①---|
口口口③ |----|
口口口口 |②---|
口口口口 |③---|
36
③口②口 |①---|
④口①口 |②---|
口口口口 |③---|
口口口口 |④---|
37
口②③口 |①---|
口①④口 |②---|
口口口口 |③---|
口口口口 |④---|
38
①口口① |①---|
口②口口 |----|
口口③口 |②---|
口口口口 |③---|
39
口口口② |①---|
口口口③ |----|
口口口口 |②---|
口①口口 |③---|
40
③口②口 |①---|
④口①口 |②---|
口口口口 |③---|
口口口口 |④---|
41
口②②口 |①---|
口①口口 |②---|
口口口口 |----|
口口口口 |----|
42
口口口口 |①---|
口口口口 |----|
①③③① |②---|
口②②口 |③---|
43
口口口口 |①---|
口①①口 |----|
口口口口 |②---|
口口②口 |----|
44
口②②口 |①---|
口③③口 |----|
口口口口 |②---|
口①口口 |③---|
45
口口②口 |①---|
口口口口 |----|
口①①口 |②---|
口口口口 |----|
46
口①口口 |①---|
口口口口 |----|
口③③口 |②---|
口②②口 |③---|
47
口口口口 |①---|
口①①口 |----|
口口口口 |②---|
口口②口 |----|
48
口口口口 |①---|
口口口② |----|
口口③口 |②---|
口①口口 |③---|
49
口口口口 |①---|
口①④口 |②---|
②③口口 |③---|
口口口口 |④---|
50
①口口① |①---|
口口口口 |----|
口口口口 |----|
口口口口 |----|
51
③③①① |①---|
口口口口 |②---|
④口口② |③---|
口口口口 |④---|
52
口口口口 |①---|
③③①① |②---|
口口口口 |③---|
④口口② |④---|
53
①①③③ |①---|
口口口口 |②---|
口②④口 |③---|
口口口口 |④---|
54
②②②② |①---|
口口口口 |----|
口口口口 |②---|
口①①口 |----|
55
口口口口 |①---|
④口口② |②---|
口口口口 |③---|
③③①① |④---|
56
④口口② |①---|
口口口口 |②---|
③③①① |③---|
口口口口 |④---|
57
口口口口 |①---|
口口口口 |----|
口口口口 |②---|
①①②② |----|
58
③③③③ |①---|
口①①口 |②---|
口口口口 |③---|
口②②口 |----|
59
口口口口 |①---|
③③①① |②---|
口口口口 |③---|
④口口② |④---|
60
③③①① |①---|
口口口口 |②---|
④口口② |③---|
口口口口 |④---|
61
口口口口 |①---|
①①③③ |②---|
口口口口 |③---|
口②④口 |④---|
62
口口口口 |①---|
②②②② |----|
口①①口 |②---|
口口口口 |----|
63
口口口口 |①---|
④口口② |②---|
口口口口 |③---|
③③①① |④---|
64
④口口② |①---|
口口口口 |②---|
③③①① |③---|
口口口口 |④---|
65
口口口口 |①---|
口口口口 |----|
②②②② |②---|
①①①① |----|
66
口口口口 |①---|
口①①口 |----|
②口口② |②---|
口③③口 |③---|
67
①①①① |①---|
口口口口 |----|
口口口口 |----|
口口口口 |----|


不確定度: 0

最終更新:2013年05月27日 20:38