MirrorDance
androp

BASIC

Level: 2
BPM: 135
Notes: 185

1
口口口口 |----|
口口口口 |----|
口口口口 |----|
口口口口 |----|
2
口口口口 |①---|
①②口口 |----|
口口口口 |②---|
口口口口 |----|
3
口口口口 |①---|
口口口口 |----|
①②口口 |②---|
口口口口 |----|
4
口口口口 |①---|
口口②① |----|
口口口口 |②---|
口口口口 |----|
5
口口口口 |①---|
口口口口 |----|
口口②① |②---|
口口口口 |----|
6
口口口口 |①---|
①②口口 |②---|
③④口口 |③---|
口口口口 |④---|
7
口口口口 |①---|
口口②① |②---|
口口④③ |③---|
口口口口 |④---|
8
口口口口 |①---|
①②口口 |②---|
③④口口 |③---|
口口口口 |④---|
9
口口口口 |①---|
口口②① |②---|
口口④③ |③---|
口口口口 |④---|
10
口口口口 |①---|
口口口口 |----|
口口口口 |②---|
口①②口 |----|
11
口③口口 |①---|
口④②口 |②---|
口①口口 |③---|
口口口口 |④---|
12
口②①口 |①---|
口口口口 |----|
口口口口 |②---|
口口口口 |----|
13
口口口口 |①---|
口口①口 |②---|
口②④口 |③---|
口口③口 |④---|
14
口口口口 |①---|
口口口口 |----|
口口口口 |②---|
口①②口 |----|
15
口③口口 |①---|
口④②口 |②---|
口①口口 |③---|
口口口口 |④---|
16
口②①口 |①---|
口口口口 |----|
口口口口 |②---|
口口口口 |----|
17
口口口口 |①---|
口④①口 |②---|
口②口口 |③---|
口口③口 |④---|
18
口口口口 |①---|
②口口口 |----|
①口口口 |②---|
口口口口 |----|
19
口口口口 |①---|
口口②口 |②---|
口①④③ |③---|
口口口口 |④---|
20
口口口口 |①---|
口口口① |----|
口口口② |②---|
口口口口 |----|
21
口口口口 |①---|
③④①口 |②---|
口②口口 |③---|
口口口口 |④---|
22
口口口口 |①---|
②口口口 |----|
①口口口 |②---|
口口口口 |----|
23
口口口口 |①---|
口口②口 |②---|
口①④③ |③---|
口口口口 |④---|
24
口口口口 |①---|
口口口① |----|
口口口② |②---|
口口口口 |----|
25
口口口口 |①---|
口②②口 |----|
口①①口 |②---|
口口口口 |----|
26
口口口口 |①---|
口口口口 |----|
口口口口 |----|
①口口① |----|
27
口口口口 |①---|
口口口口 |②---|
口③口口 |③---|
口①②口 |----|
28
口口口口 |①---|
口口口口 |----|
①口口① |----|
口口口口 |----|
29
口口口口 |①---|
口③口口 |②---|
口①②口 |③---|
口口口口 |----|
30
口口口口 |①---|
①口口① |----|
口口口口 |----|
口口口口 |----|
31
口③口口 |①---|
口①②口 |②---|
口口口口 |③---|
口口口口 |----|
32
①口口① |①---|
口口口口 |----|
口口口口 |----|
口口口口 |----|
33
口①②口 |①---|
口③口口 |②---|
口口口口 |③---|
口口口口 |----|
34
①③②① |①---|
口口口口 |----|
口口口口 |②---|
口口口口 |③---|
35
口口口口 |①---|
口②①口 |②---|
口口③口 |③---|
口口口口 |----|
36
口口口口 |①---|
①③②① |----|
口口口口 |②---|
口口口口 |③---|
37
口口口口 |①---|
口口口口 |②---|
口②①口 |③---|
口口③口 |----|
38
口口口口 |①---|
口口口口 |----|
①③②① |②---|
口口口口 |③---|
39
口口口口 |①---|
口口口口 |②---|
口口③口 |③---|
口②①口 |----|
40
口口口口 |①---|
口口口口 |②---|
③口口④ |③---|
①口口② |④---|
41
④③③口 |①---|
①口口② |②---|
口口口口 |③---|
口口口口 |④---|
42
口口口① |①---|
口②口口 |②---|
口口③口 |③---|
口口口口 |----|
43
口口口口 |①---|
①②③④ |②---|
口口口口 |③---|
口口口口 |④---|
44
口口口口 |----|
口②②口 |①---|
口①①口 |②---|
口口口口 |----|
45
口口口口 |①---|
①口口① |----|
口口口口
口口口口

②口口②
③口口口
口口口口 |②---|
口口口口 |③---|
46
口口口口 |①---|
口口口① |②---|
口②口口 |③---|
口口③口 |----|
47
口口口口 |①---|
口口口口 |②---|
①②③④ |③---|
口口口口 |④---|
48
口口口口 |----|
口口口口 |①---|
口②②口 |②---|
口①①口 |----|
49
③口口口 |①---|
②口口② |----|
①口口① |②---|
口口口口 |③---|
50
口口口① |①---|
口②口口 |②---|
口口③口 |③---|
口口口口 |----|
51
口口口口 |①---|
①②③④ |②---|
口口口口 |③---|
口口口口 |④---|
52
口口口口 |----|
口②②口 |①---|
口①①口 |②---|
口口口口 |----|
53
口口口口 |①---|
①口口① |----|
口口口口
口口口口

②口口②
③口口口
口口口口 |②---|
口口口口 |③---|
54
口口口口 |①---|
口口口① |②---|
口②口口 |③---|
口口③口 |----|
55
口口口口 |①---|
口口口口 |②---|
①②③④ |③---|
口口口口 |④---|
56
口口口口 |----|
口口口口 |①---|
口②②口 |②---|
口①①口 |----|
57
口口口口 |①---|
②口口② |----|
①口口① |②---|
口口口口 |----|


不確定度: 0

最終更新:2013年05月27日 20:33