MirrorDance
androp

ADVANCED

Level: 6
BPM: 135
Notes: 412

1
口口口口 |----|
口口口口 |----|
口口口口 |----|
口口口口 |----|
2
口口口口 |①--②|
口口口口 |--③-|
口②③⑥ |④--⑤|
①④①⑤ |--⑥-|
3
口口口口 |①--②|
口②③⑥ |--③-|
①④①⑤ |④--⑤|
口口口口 |--⑥-|
4
口②③⑥ |①--②|
①④①⑤ |--③-|
口口口口 |④--⑤|
口口口口 |--⑥-|
5
①④①⑤ |①--②|
口口口口 |--③-|
口口口口 |④--⑤|
⑥②③口 |--⑥-|
6
口口口口 |①--②|
口口口口 |--③-|
⑥③②口 |④--⑤|
⑤①④① |--⑥-|
7
口口口口 |①--②|
⑥③②口 |--③-|
⑤①④① |④--⑤|
口口口口 |--⑥-|
8
⑥③②口 |①--②|
⑤①④① |--③-|
口口口口 |④--⑤|
口口口口 |--⑥-|
9
⑤①④① |①--②|
口口口口 |--③-|
口口口口 |④---|
口③②口 |⑤---|
10
口口口口 |①---|
口口口口 |②-③-|
⑥口①⑦ |④-⑤-|
⑤④③② |⑥-⑦-|
11
⑤④③② |①-②-|
口口口① |③-④-|
口口⑦口 |⑤---|
口口口⑥ |⑥-⑦-|
12
②③④⑤ |①---|
⑦①口⑥ |②-③-|
口口口口 |④-⑤-|
口口口口 |⑥-⑦-|
13
⑥口口口 |①-②-|
口⑦口口 |③-④-|
①口口口 |⑤---|
②③④⑤ |⑥-⑦-|
14
口口⑥⑤ |①---|
口口口④ |②-③-|
口口①③ |④-⑤-|
口口⑦② |⑥-⑦-|
15
⑤口口口 |①-②-|
④口口口 |③-④-|
③口⑦口 |⑤---|
②①口⑥ |⑥-⑦-|
16
②口口口 |①---|
③①口口 |②-③-|
④口口口 |④-⑤-|
⑤⑥⑦口 |⑥-⑦-|
17
⑦②③④ |①-②-|
口⑧口⑤ |③-④-|
口口口⑥ |⑤-⑥-|
口口口① |⑦-⑧-|
18
口口口口 |①---|
口口口口 |②-③-|
⑥口①⑦ |④-⑤-|
⑤④③② |⑥-⑦-|
19
⑤④③② |①-②-|
口口口① |③-④-|
口口⑦口 |⑤---|
口口口⑥ |⑥-⑦-|
20
②③④⑤ |①---|
⑦①口⑥ |②-③-|
口口口口 |④-⑤-|
口口口口 |⑥-⑦-|
21
⑥口口口 |①-②-|
口⑦口口 |③-④-|
①口口口 |⑤---|
②③④⑤ |⑥-⑦-|
22
口口⑥⑤ |①---|
口口口④ |②-③-|
口口①③ |④-⑤-|
口口⑦② |⑥-⑦-|
23
⑤口口口 |①-②-|
④口口口 |③-④-|
③口⑦口 |⑤---|
②①口⑥ |⑥-⑦-|
24
③口②口 |①-②-|
④①口口 |③-④-|
⑤口口口 |⑤-⑥-|
⑥⑦⑧口 |⑦-⑧-|
25
④口口③ |①--②|
口②口口 |--③-|
口口口口 |④---|
口口口① |----|
26
③口口③ |①---|
口④④口 |②---|
③口口③ |---③|
①②②① |--④-|
27
③口口③ |①---|
口④④口 |②---|
③口口③ |---③|
①②②① |--④-|
28
③口口③ |①---|
口④④口 |②---|
③口口③ |---③|
①②②① |--④-|
29
③口口③ |①---|
口④④口 |②---|
③口口③ |---③|
①②②① |--④-|
30
口②②口 |①---|
①口口① |②---|
口口口口
口口口口

口口口口
③口口③
口④④口 |---③|
③口口③ |--④-|
31
①②②① |①---|
③口口③ |②---|
口④④口 |---③|
③口口③ |--④-|
32
①②②① |①---|
③口口③ |②---|
口④④口 |---③|
③口口③ |--④-|
33
①②②① |①---|
③口口③ |②---|
口④④口 |---③|
③口口③ |--④-|
34
口口口口 |--①-|
口①②口 |②-③-|
⑥⑦口③ |④-⑤-|
口⑤④口 |⑥-⑦-|
35
口④③口 |①-②-|
⑤口口② |③-④-|
口口①口 |⑤---|
口口口口 |----|
36
口④⑤口 |--①-|
③口⑦⑥ |②-③-|
口②①口 |④-⑤-|
口口口口 |⑥-⑦-|
37
口口口口 |①-②-|
口①口口 |③-④-|
②口口⑤ |⑤---|
口③④口 |----|
38
口口口口 |--①-|
口①②口 |②-③-|
⑥⑦口③ |④-⑤-|
口⑤④口 |⑥-⑦-|
39
口④③口 |①-②-|
⑤口口② |③-④-|
口口①口 |⑤---|
口口口口 |----|
40
口⑤④口 |①-②-|
⑥⑦⑧③ |③-④-|
口①②口 |⑤-⑥-|
口口口口 |⑦-⑧-|
41
口口口口 |①-②-|
口⑤⑤口 |③-④-|
④⑤⑤① |⑤---|
⑥③②⑦ |⑥-⑦-|
42
③①①② |①---|
口口口口 |②-③-|
口口口口 |④---|
口④④口 |----|
43
口口口口 |①-②-|
①⑤口③ |③-④-|
②口⑥④ |⑤---|
口口口口 |⑥---|
44
口口口口 |①---|
②口①口 |②---|
口①口②
口口口口

口口口口
口口口③
③④④口 |③---|
口口口口 |④---|
45
⑥口口⑦ |①-②-|
④⑤⑤② |③-④-|
③口口① |⑤---|
口口口口 |⑥-⑦-|
46
口④④口 |①---|
口口口口 |②-③-|
口口口口 |④---|
③①①② |----|
47
口口口口 |①-②-|
④口⑤② |③-④-|
③⑥口① |⑤---|
口口口口 |⑥---|
48
口口口口 |①---|
口①口② |②---|
②口①口
口口口口

口口口口
③④④口
口口口③ |③---|
口口口口 |④---|
49
口口口口 |①-②-|
③口口① |③-④-|
④⑤⑤② |⑤---|
⑥口口⑦ |⑥-⑦-|
50
③①①② |①---|
口口口口 |②-③-|
口口口口 |④---|
口④④口 |----|
51
口口口口 |①-②-|
①⑤口③ |③-④-|
②口⑥④ |⑤---|
口口口口 |⑥---|
52
口口口口 |①---|
②口①口 |②---|
口①口②
口口口口

口口口口
口口口③
③④④口 |③---|
口口口口 |④---|
53
⑥口口⑦ |①-②-|
④⑤⑤② |③-④-|
③口口① |⑤---|
口口口口 |⑥-⑦-|
54
口④④口 |①---|
口口口口 |②-③-|
口口口口 |④---|
③①①② |----|
55
口口口口 |①-②-|
④口⑤② |③-④-|
③⑥口① |⑤---|
口口口口 |⑥---|
56
口口口口 |①---|
口①口② |②---|
②口①口
口口口口

口口口口
③④④口
口口口③ |③---|
口口口口 |④---|
57
⑤⑤⑤⑤ |①-②-|
③口口① |③-④-|
④口口② |⑤---|
口口口口 |----|


不確定度: 0

最終更新:2013年05月27日 20:32