Love Train
Marin&Riena

ADVANCED

Level: 7
BPM: 121
Notes: 404

1
口口口口 |----|
口口口口 |----|
口口口口 |----|
口口口口 |----|
2
口口⑤口 |①-②③|
①口口⑥ |④---|
口⑦口④ |⑤--⑥|
口②③口 |--⑦-|
3
口⑤口口 |①-②③|
口口⑥口 |④---|
①⑦口④ |⑤--⑥|
口②③口 |--⑦-|
4
⑥口口口 |①-②-|
口口口③ |-③--|
⑥口⑤④ |④-⑤-|
①②口③ |-⑥--|
5
口④⑤口 |①--②|
②口口② |--③-|
口③③口 |--④-|
①口口① |⑤---|
6
口口⑤口 |①-②③|
①口口⑥ |④---|
口⑦口④ |⑤--⑥|
口②③口 |--⑦-|
7
口⑤口口 |①-②③|
口口⑥口 |④---|
①⑦口④ |⑤--⑥|
口②③口 |--⑦-|
8
口口口口 |①-②-|
口口③口 |③---|
②口口口
口①口口

口口口口
口口⑦⑥
口⑤口口 |④-⑤-|
口口④口 |⑥-⑦-|
9
口口口口 |①--②|
③②口口 |--③-|
①口③①
口口②口

口口⑤口
⑥口⑤口
口④口口 |--④-|
口④口口 |⑤--⑥|
10
口口口口 |①②③④|
口⑤⑥① |-⑤⑥⑦|
②⑦口③
④口口口

口口口口
口口口口
⑪口⑩口 |-⑧⑨-|
口⑨⑧口 |⑩--⑪|
11
④口口口 |①②③④|
②⑥⑤③ |-⑤⑥⑦|
口口⑦①
口口口口

⑪⑧⑨口
口口口口
口⑩口口 |-⑧⑨-|
口口口口 |⑩--⑪|
12
口⑬口① |①②③④|
②⑫口③ |⑤⑥⑦⑧|
④⑩⑪⑤ |⑨⑩⑪-|
⑥⑧⑨⑦ |⑫--⑬|
13
口口①口 |-①-②|
②口⑨③ |③④⑤⑥|
④口⑨⑤ |-⑦⑧-|
⑥⑧⑦口 |⑨---|
14
①口口② |-①②③|
③⑪口④ |④⑤⑥⑦|
⑤⑩⑫⑥ |-⑧⑨-|
⑦⑧⑨口 |⑩-⑪⑫|
15
②⑪⑪① |-①②③|
④口⑨③ |④⑤⑥⑦|
⑥⑩口⑤ |-⑧⑨-|
口⑧口⑦ |⑩-⑪-|
16
口⑨⑨② |--①-|
①口口口 |②-③④|
⑤⑦⑧⑥ |⑤⑥⑦-|
③口⑧④ |⑧-⑨-|
17
口⑦⑦口 |①-②-|
④②②⑤ |③-④⑤|
⑥⑧⑧口 |-⑥⑦-|
①口口③ |⑧---|
18
口口⑥口 |①-②-|
①口②口 |③-④-|
口⑤口⑤ |⑤--⑥|
口③口④ |----|
19
口⑥⑤口 |①-②-|
①口②口 |③-④-|
口口⑤口 |⑤--⑥|
口③口④ |----|
20
口口⑦⑧ |①-②-|
①口③口 |③-④-|
口⑤⑥⑤ |⑤-⑥⑦|
口②口④ |---⑧|
21
①②⑤⑤ |①-②-|
口③口口 |③-④-|
口④⑥⑥ |⑤---|
口口口口 |⑥---|
22
口口⑥口 |①-②-|
①口②口 |③-④-|
口⑤口⑤ |⑤--⑥|
口③口④ |----|
23
口口⑥口 |①-②-|
①口③口 |③-④-|
口⑤⑦⑤ |⑤--⑥|
口②口④ |--⑦-|
24
口①③口 |--①-|
口口④口 |②---|
⑥口口② |③-④-|
口⑤口口 |⑤--⑥|
25
④④口③ |①-②-|
口口口② |③-④-|
口口①口 |----|
口口口口 |----|
26
⑤①口⑤ |①---|
①口③口 |②---|
口④口② |③--④|
口口②口 |--⑤-|
27
口口口口 |--①-|
⑤⑤①口 |②-③-|
口口②口 |④--⑤|
口④⑥③ |--⑥-|
28
⑦④①⑦ |①-②-|
⑥口②⑥ |③-④-|
口⑤③口 |⑤--⑥|
口口口口 |--⑦-|
29
口口④口 |--①-|
口⑤⑥口 |②-③-|
口②②口 |④-⑤-|
③①①口 |⑥---|
30
口①口口 |①---|
①口口口 |②---|
口口口②
口口②口

口口口口
口口③口
口④口口 |③--④|
口口⑤口 |--⑤-|
31
①口口① |①-②-|
⑥⑥②口 |③-④-|
口口③口 |⑤--⑥|
口⑤⑦④ |--⑦-|
32
口④①口 |①-②-|
⑥口②⑥ |③-④-|
口⑤③口 |⑤--⑥|
口口口口 |----|
33
口口口口 |--①-|
口口口口 |②-③-|
③②②③
口①①口

口口口口
口④⑤口
口口口口 |--④-|
口⑥口口 |⑤-⑥-|
34
口①①口 |①---|
②口口② |②---|
口口口口
口口口口

③⑤⑤③
口口口口
④口口④ |③--④|
口口口口 |--⑤-|
35
口口口口 |--①-|
②口口① |②-③-|
口⑤⑤③ |④--⑤|
④⑥⑥口 |--⑥-|
36
口⑦⑦口 |①-②-|
⑥①②⑥ |③-④-|
③⑤口④ |⑤--⑥|
口口⑤口 |--⑦-|
37
口④④口 |--①-|
⑤①口⑤ |②-③-|
⑥③②⑥ |④-⑤-|
口口口口 |⑥---|
38
①③③① |①---|
口①①口 |②---|
④②②④ |③--④|
口口⑤口 |--⑤-|
39
①口口① |①-②-|
⑥⑥②口 |③-④-|
口口③口 |⑤--⑥|
口⑤⑦④ |--⑦-|
40
口④①口 |①-②-|
⑥口②⑥ |③-④-|
口⑤③口 |⑤--⑥|
口口口口 |----|
41
口口口口 |--①-|
口口口口 |②-③-|
③②②③
口①①口

口口口口
口④⑤口
口口口口 |--④-|
口口⑥口 |⑤-⑥-|
42
③①口④ |--①-|
口口口④ |②---|
口②②口 |③--④|
口口口口 |----|
43
口口口口 |--①-|
口③④口 |②-③-|
②口口⑤ |--④-|
口①⑥口 |⑤-⑥-|
44
口口口口 |①-②-|
口①③口 |③-④-|
②口口④
口口口口

口口口口
口⑦口口
⑥口口口 |--⑤-|
口⑤口口 |⑥-⑦-|
45
口口口口 |--①-|
口口①口 |②-③-|
口④⑥② |--④-|
口⑤③口 |⑤-⑥-|
46
口口口口 |①-②-|
口①③口 |③-④-|
②口口④
口口口口

口口口口
口⑦口口
⑥口口口 |--⑤-|
口⑤口口 |⑥-⑦-|
47
口口口口 |--①-|
口口③口 |②-③-|
口口口②
口口①口

口口口口
口口口口
口④口口 |--④-|
口⑥⑤口 |⑤-⑥-|
48
口口口口 |--①-|
⑦口⑧④ |②-③-|
⑥②⑤口 |④-⑤-|
①口③口 |⑥⑦-⑧|
49
口口口口 |--①-|
口①口口 |--②-|
口③②口 |③---|
口口口口 |----|
50
③①①③ |①---|
②口口② |②---|
④口口④ |③--④|
口口口口 |----|


不確定度: 0

最終更新:2013年05月27日 20:23