Love at First Sight
Fear, and Loathing in Las Vegas

BASIC

Level: 3
BPM: 160
Notes: 260

1
口口口口 |----|
口口口口 |----|
口口口口 |----|
口口口口 |----|
2
①口口① |①---|
口口口口 |----|
口口口口 |----|
口口口口 |----|
3
口口口口 |----|
口口口口 |----|
口口口口 |----|
口口口口 |----|
4
口①①口 |①---|
口口口口 |----|
口口口口 |----|
口口口口 |----|
5
口口口口 |----|
口口口口 |----|
口口口口 |----|
口口口口 |----|
6
口口口口 |①---|
①口口① |----|
口口口口 |----|
口口口口 |----|
7
口口口口 |----|
口口口口 |----|
口口口口 |----|
口口口口 |----|
8
口口口口 |①---|
口口口口 |----|
口①①口 |----|
口口口口 |----|
9
口口口口 |----|
口口口口 |----|
口口口口 |----|
口口口口 |----|
10
口口口口 |①---|
口口口口 |----|
口口口口 |----|
口①①口 |----|
11
口口口口 |----|
口口口口 |----|
口口口口 |----|
口口口口 |----|
12
口口口④ |①---|
口口③口 |②---|
口②口口 |③---|
①口口口 |④---|
13
口③②口 |①---|
④口口① |②---|
口口口口 |③---|
口口口口 |④---|
14
①口口口 |①---|
口②口口 |②---|
口口③口 |③---|
口口口④ |④---|
15
口口口口 |①---|
口口口口 |②---|
④口口① |③---|
口③②口 |④---|
16
口口口口 |①---|
口④③口 |②---|
口②口口 |③---|
①口口口 |④---|
17
口口口口 |①---|
口④③口 |②---|
口②①口 |③---|
口口口口 |④---|
18
口口口④ |①---|
口口③口 |②---|
口②①口 |③---|
口口口口 |④---|
19
口①①口 |①---|
口②口口 |②---|
口③口口 |③---|
口④口口 |④---|
20
口①①口 |①---|
口②②口 |----|
口口口口 |②---|
口口口口 |----|
21
口①①口 |①---|
口口②口 |②---|
口口③口 |③---|
口口④口 |④---|
22
口①①口 |①---|
口口口口 |----|
口②②口 |②---|
口口口口 |----|
23
口①①口 |①---|
口②口口 |②---|
口③口口 |③---|
口④口口 |④---|
24
口①①口 |①---|
口②②口 |----|
口口口口 |②---|
口口口口 |----|
25
口①①口 |①---|
口口②口 |②---|
口口③口 |③---|
口口④口 |④---|
26
口①①口 |①---|
口口口口 |----|
口②②口 |②---|
口口口口 |----|
27
口④口口 |①---|
口③口口 |②---|
口②口口 |③---|
口①①口 |④---|
28
①口口① |①---|
口②②口 |----|
口口口口 |②---|
口口口口 |----|
29
口口④口 |①---|
口口③口 |②---|
口口②口 |③---|
口①①口 |④---|
30
①口口① |①---|
口口口口 |----|
口②②口 |②---|
口口口口 |----|
31
口④口口 |①---|
口③口口 |②---|
口②口口 |③---|
口①①口 |④---|
32
①口口① |①---|
口②②口 |----|
口口口口 |②---|
口口口口 |----|
33
口口④口 |①---|
口口③口 |②---|
口口②口 |③---|
口①①口 |④---|
34
①口口① |①---|
口口口口 |----|
口②②口 |②---|
口口口口 |----|
35
口口口口 |①---|
①口口② |②---|
③口口④ |③---|
口口口口 |④---|
36
口口口口 |①---|
口①②口 |----|
口口口口 |②---|
口口口口 |----|
37
口口口口 |①---|
①口口② |②---|
③口口④ |③---|
口口口口 |④---|
38
口口口口 |①---|
口①口口 |----|
口口②口 |②---|
口口口口 |----|
39
口口口口 |①---|
①口口② |②---|
③口口④ |③---|
口口口口 |④---|
40
口口口口 |①---|
口①口口 |----|
口②口口 |②---|
口口口口 |----|
41
口口口口 |①---|
③口口④ |②---|
①口口② |③---|
口口口口 |④---|
42
口口②口 |①---|
口①口口 |----|
口口口口 |②---|
口口口口 |----|
43
口口口口 |①---|
口口口口 |②---|
①②③④ |③---|
口口口口 |④---|
44
口口口口 |①---|
口口口口 |②---|
口口口口 |③---|
④③②① |④---|
45
口口口口 |①---|
①口口② |----|
口口口口 |②---|
口口口口 |----|
46
①口口② |①---|
口口口口 |----|
口口口口 |②---|
口口口口 |----|
47
①②③④ |①---|
口口口口 |②---|
口口口口 |③---|
口口口口 |④---|
48
口口口口 |①---|
④③②① |②---|
口口口口 |③---|
口口口口 |④---|
49
口口口口 |①---|
口口口口 |----|
口口口口 |②---|
①口口② |----|
50
口口口口 |①---|
口口口口 |----|
口①②口 |②---|
口口口口 |----|
51
口口口口 |①---|
口①①口 |----|
口口口口 |----|
口口口口 |----|
52
口口口口 |①---|
①口口① |----|
口口口口 |----|
口口口口 |----|
53
口①①口 |①---|
口口口口 |----|
口口口口 |----|
口口口口 |----|
54
口口口口 |①---|
口口口口 |----|
口①①口 |----|
口口口口 |----|
55
③④口口 |①---|
口口口口 |②---|
②口口口 |③---|
①口口口 |④---|
56
口口口① |①---|
口口口② |②---|
口口口口 |③---|
口口④③ |④---|
57
③④口口 |①---|
口口口口 |②---|
②口口口 |③---|
①口口口 |④---|
58
口口口① |①---|
口口口② |②---|
口口口口 |③---|
口口④③ |④---|
59
②④口口 |①---|
口口口口 |②---|
①③口口 |③---|
口口口口 |④---|
60
口口②④ |①---|
口口口口 |②---|
口口①③ |③---|
口口口口 |④---|
61
口②④口 |①---|
口口口口 |②---|
口①③口 |③---|
口口口口 |④---|
62
口③④口 |①---|
口①②口 |②---|
口口口口 |③---|
口口口口 |④---|
63
口口口口 |①---|
口①①口 |----|
口②②口 |②---|
口口口口 |----|
64
口口口口 |①---|
①②③④ |②---|
口口口口 |③---|
口口口口 |④---|
65
①③④② |①---|
口口口口 |②---|
口口口口 |③---|
口口口口 |④---|
66
①口口口 |①---|
②口口口 |②---|
③口口口 |③---|
④口口口 |④---|
67
口口口口 |①---|
口口口口 |----|
②口口① |②---|
口口口口 |----|
68
口口口口 |①---|
口②①口 |----|
口口口口 |②---|
口口口口 |----|
69
口①①口 |①---|
口②②口 |----|
口口口口 |②---|
口口口口 |----|
70
口①①口 |①---|
②口口② |----|
口口口口 |②---|
口口口口 |----|
71
①口口① |①---|
口口口口 |----|
口②②口 |②---|
口口口口 |----|
72
口口口④ |①---|
口口口③ |②---|
口口口② |③---|
口口口① |④---|
73
口①①口 |①---|
口②②口 |----|
口口口口 |②---|
口口口口 |----|
74
口口口口 |①---|
口口口口 |----|
口①①口 |②---|
口②②口 |----|
75
③④口口 |①---|
口口口口 |②---|
②口口口 |③---|
①口口口 |④---|
76
口口口① |①---|
口口口② |②---|
口口口口 |③---|
口口④③ |④---|
77
口口口口 |①---|
口②③口 |②---|
口①④口 |③---|
口口口口 |④---|
78
口口口口 |①---|
口口口口 |----|
口②②口 |②---|
口①①口 |----|
79
口①①口 |①---|
口口口口 |----|
口口口口 |----|
口口口口 |----|


不確定度: 0

最終更新:2013年05月27日 20:21