HEKIREKI
LAST ALLIANCE

EXTREME

Level: 9
BPM: 260
Notes: 546

1
口口口口 |----|
口口口口 |----|
口口口口 |----|
口口口口 |----|
2
口①口② |----|
口口③④ |①--②|
口口⑤口 |----③--④|
口口口口 |-⑤--|
3
口口④口 |-------①|
②③口口 |-----②--|
口口口口 |---③----|
①口口口 |-④------|
4
口④口口 |-----①--|
③口口口 |----|
②口①口 |-②-----③|
口口口口 |-----④--|
5
口口口口 |①---|
口口①口 |----|
③④口口 |②--③|
口②口口 |--④-|
6
口③口口 |-①--|
口①口口 |---②|
口口口② |----|
口口口口 |---③----|
7
口口口① |-①-----②|
口口②③ |--③--④--|
口口④口 |----|
⑤口口口 |-⑤--|
8
口口③口 |①--②|
①②口口 |--③-|
口口④口 |----|
口口口口 |-④------|
9
口③口口 |-----①--|
②口④口 |---②----|
①口口口 |③--④----|
口口口口 |----|
10
口口③④ |-①--|
口②口口 |-②-----③|
口⑤口口 |-----④--|
口①口口 |--⑤-|
11
口口口口 |-①--|
口口①② |②------③|
口口④⑤ |-----④--|
口③口口 |--⑤-|
12
口口口口 |--①-|
①①口口 |----|
口口口口 |----|
口口口口 |----|
13
口口口口 |----|
口口口口 |----|
口口口口 |----|
口口口口 |----|
14
口口口口 |----|
口口口口 |----|
口口口口 |----|
口口口口 |----|
15
口口口口 |----|
口口口口 |----|
口口口口 |----|
口口口口 |----|
16
口口口口 |----|
口口口口 |----|
口口口口 |----|
口口口口 |----|
17
口口口口 |----|
口口口口 |----|
口口口口 |----|
口口口口 |----|
18
口口口口 |----|
口口口口 |----|
口口口口 |----|
口口口口 |----|
19
口④④口 |----|
①口口② |----|
口口③口 |①-②-|
口口口口 |③-④-|
20
口口口口 |----|
③③口口 |①---|
口①口口 |②---|
口口②口 |③---|
21
口口口口 |----|
口口口口 |①---|
口口②口 |②---|
③③口① |③---|
22
①口②口 |----|
①口③② |①---|
口口口③ |②---|
口口口口 |③---|
23
口口⑤口 |----|
⑥⑥口④ |①-②-|
①②③口 |③-④-|
口口口口 |⑤-⑥-|
24
口口口口 |----|
口口口口 |①---|
③口口① |②---|
③口②口 |③---|
25
口口口① |----|
口口②口 |①---|
口口口口 |②---|
口③③口 |③---|
26
①口口口 |----|
①②口口 |①---|
口②③口 |②---|
口口口③ |③---|
27
口⑥⑥口 |----|
口口⑤口 |①-②-|
③口口④ |③-④-|
口①②口 |⑤-⑥-|
28
口口口口 |----|
③③口口 |①---|
口①口口 |②---|
口口②口 |③---|
29
口口口口 |----|
口口口口 |①---|
口口②口 |②---|
③③口① |③---|
30
①口②口 |----|
①口③② |①---|
口口口③ |②---|
口口口口 |③---|
31
口口⑤口 |----|
⑥⑥口④ |①-②-|
①②③口 |③-④-|
口口口口 |⑤-⑥-|
32
口口口口 |----|
口口口口 |①---|
③口口① |②---|
③口②口 |③---|
33
口口口① |----|
口口②口 |①---|
口口口口 |②---|
口③③口 |③---|
34
①口口口 |----|
①②口口 |①---|
口②③口 |②---|
口口口③ |③---|
35
④③⑥⑥ |----|
⑤口②① |①-②-|
口口口口 |③-④-|
口口口口 |⑤-⑥-|
36
口口口口 |----|
口②②口 |①---|
①③③① |②---|
口口口口 |③---|
37
口①口② |----|
口③③口 |----|
口口口口 |①-②-|
口口口口 |--③-|
38
⑤⑤口口 |----|
①口口③ |①-②-|
②口口④ |③-④-|
口口口口 |--⑤-|
39
口口口口 |----|
口口口④ |①-②-|
口③①口 |③---|
口口②口 |④---|
40
①口口口 |①---|
①②口口 |--②-|
口口②③ |----|
口口口③ |③---|
41
口口口口 |----|
③口口口 |----|
口口口口 |①-②-|
口①②口 |--③-|
42
⑧口口口 |①-②-|
口①②③ |③-④-|
⑦⑥⑤④ |⑤-⑥-|
口口⑧口 |⑦-⑧-|
43
口②③① |----|
口③②口 |①---|
口口口口 |②---|
口①口口 |③---|
44
①口口② |①---|
口口口口 |--②-|
②口口① |----|
口③③口 |③---|
45
口①口② |----|
口③③口 |----|
口口口口 |①-②-|
口口口口 |--③-|
46
⑤⑤口口 |----|
①口口③ |①-②-|
②口口④ |③-④-|
口口口口 |--⑤-|
47
口口口口 |----|
口口口④ |①-②-|
口③①口 |③---|
口口②口 |④---|
48
①口口口 |①---|
①②口口 |--②-|
口口②③ |----|
口口口③ |③---|
49
口③口口 |----|
口口口口 |----|
口口②口 |①-②-|
口①口口 |--③-|
50
口口⑤口 |----|
④口②⑤ |①-②-|
口③口① |③-④-|
口口口口 |--⑤-|
51
②②口口 |----|
口口口口 |①---|
口口④口 |②---|
①①③③ |③-④-|
52
口口口口 |①---|
②③口① |②-③-|
口口口⑤ |--④-|
口④口口 |--⑤-|
53
口①口② |----|
口③③口 |----|
口口口口 |①-②-|
口口口口 |--③-|
54
⑤⑤口口 |----|
①口口③ |①-②-|
②口口④ |③-④-|
口口口口 |--⑤-|
55
口口口口 |----|
口口口④ |①-②-|
口③①口 |③---|
口口②口 |④---|
56
⑤①②⑥ |①-②-|
⑦③④⑧ |③-④-|
口口口口 |⑤-⑥-|
口口口口 |⑦-⑧-|
57
口口口口 |①-②-|
⑧⑤⑥口 |③-④-|
⑤①②⑥ |⑤-⑥-|
⑦③④⑧ |⑦-⑧-|
58
口③②④ |----|
口口口口 |①---|
口①口④ |②-③-|
口口口口 |--④-|
59
②③口口 |----|
口①口口 |①---|
②③口口 |②---|
口①口口 |③---|
60
口口口口 |①-②-|
③⑦⑧④ |③-④-|
口口口口 |⑤-⑥-|
①⑤⑥② |⑦-⑧-|
61
③⑦⑧④ |①-②-|
口⑧口口 |③-④-|
①⑤⑥② |⑤-⑥-|
⑤口口⑥ |⑦-⑧-|
62
⑤⑤口口 |----|
①口口③ |①-②-|
②口口④ |③-④-|
口口口口 |--⑤-|
63
口口口口 |----|
口口口③ |①---|
口口①口 |②---|
②口①口 |③---|
64
⑤①②⑥ |①-②-|
⑦③④⑧ |③-④-|
口口口口 |⑤-⑥-|
口口口口 |⑦-⑧-|
65
口口口口 |①-②-|
口⑤口口 |③-④-|
⑤①②⑥ |⑤-⑥-|
⑦③④⑧ |⑦-⑧-|
66
口口①① |①---|
②口③④ |②---|
口口⑤⑥ |③-④-|
口口口口 |⑤-⑥-|
67
口口口⑥ |①-②-|
口⑤口口 |③-④-|
①②口口 |⑤---|
③④口口 |⑥---|
68
①口④口 |①---|
①口②④ |②-③-|
⑤口②③ |--④-|
口⑤口③ |--⑤-|
69
口口口② |①---|
④①③⑤ |②-③-|
口口口口 |④---|
口口口口 |⑤---|
70
①口口口 |①---|
口口口口 |----|
口②②口 |②---|
口口口① |----|
71
口口口① |①---|
口②②口 |----|
口口③口 |②---|
①口口口 |③---|
72
①口③口 |①---|
口口口② |②-③-|
口④口口 |----|
口口口① |④---|
73
口口口① |①---|
口口②口 |--②-|
口口口③ |③---|
①口④口 |④---|
74
①口口口 |①---|
口口口口 |----|
口②②口 |②---|
口口口① |----|
75
口口③① |①---|
口②口口 |----|
口口口口 |②---|
①口口口 |③---|
76
①口口口 |①---|
口④口口 |②---|
口口②口 |③---|
口③口① |④---|
77
口口口① |①---|
口口口② |②---|
口口口口 |③---|
①④口③ |④---|
78
②②口口 |①---|
④④③口 |②---|
口口①口 |③---|
口口口口 |④---|
79
口口①③ |①---|
口口口口 |②---|
②②口口 |③---|
④④口口 |④---|
80
②②口口 |①---|
④④③口 |②---|
口口①口 |③---|
口口口口 |④---|
81
口口①③ |①---|
口口口口 |②---|
②②口口 |③---|
④④口口 |④---|
82
口③口口 |①---|
口①口口 |②---|
口口④④ |③---|
口口②② |④---|
83
①口④④ |①---|
③口②② |②---|
口口口口 |③---|
口口口口 |④---|
84
口④口口 |①---|
④口口口 |②---|
①口②② |③---|
口口③③ |④---|
85
⑤口①⑤ |①-②-|
口①②① |③-④-|
⑥③④⑥ |⑤---|
口口口口 |⑥---|
86
③口口③ |①---|
口②②口 |②---|
口口口口 |----|
①①①① |③---|
87
口口口口 |①-②-|
②口⑤③ |③---|
口①①④ |④---|
口口④口 |⑤---|
88
⑤①口口 |①-②-|
口口口口 |③---|
③④口口 |④---|
④②口⑤ |⑤---|
89
口口②③ |①-②-|
口①口口 |③---|
⑤口①口 |④---|
口④④口 |⑤---|
90
口②口口 |①---|
②口口口 |②---|
口①③口 |③---|
口④口③ |④---|
91
口口②③ |①-②-|
口①⑤口 |③---|
口④口⑤ |④---|
④口口口 |⑤---|
92
口口④口 |①---|
②②口④ |②---|
③口口口 |③---|
口③①① |④---|
93
①口口口 |①---|
口口口口 |②---|
④口②② |③---|
口⑤③③ |④-⑤-|
94
②②①口 |①---|
④④②① |②---|
口口③口 |③---|
口口④⑤ |④-⑤-|
95
口口口③ |----|
口口②① |①---|
①①口口 |②---|
③③口口 |③---|
96
①①口口 |----|
③③口口 |①---|
口口①③ |②---|
口口②口 |③---|
97
口口①口 |----|
口口口② |①---|
①①③口 |②---|
③③口口 |③---|
98
①①④口 |----|
④④口口 |①-②-|
口口口③ |③---|
口口②① |④---|
99
口口口③ |----|
口口口② |①---|
①①①口 |②---|
③③口口 |③---|
100
③③口口 |①-②-|
④④口口 |③---|
⑤⑤口口 |④---|
口口①② |⑤---|
101
口口口口 |①---|
口口口口 |----|
口口口口 |----|
①①口口 |----|


不确定度: 0

最終更新:2012年11月08日 04:15