GOOD LUCKY!!!!!
グッキー

BASIC

Level: 2
BPM: 138
Notes: 233

1
口口口口 |----|
口口口口 |----|
口口口口 |----|
口口口口 |----|
2
口②②② |①---|
口口口口 |----|
口①①口 |②---|
口口口口 |----|
3
口口口口 |①---|
②口口② |----|
口口口口 |②---|
口①①口 |----|
4
②②②口 |①---|
口口口口 |----|
口①①口 |②---|
口口口口 |----|
5
口口口口 |①---|
②口口② |----|
口口口口 |②---|
口①①口 |----|
6
口②②② |①---|
口口口口 |----|
口①①口 |②---|
口口口口 |----|
7
口口口口 |①---|
②口口② |----|
口口口口 |②---|
口①①口 |----|
8
②②②口 |①---|
口口口口 |----|
口①①口 |②---|
口口口口 |----|
9
口口口口 |①---|
②口口② |----|
口口口口 |②---|
口①①口 |----|
10
②口口② |①---|
口口口口 |----|
口①①口 |②---|
口口口口 |----|
11
口口口口 |①---|
口①①口 |②---|
口②②口 |③---|
口③③口 |----|
12
口口口口 |①---|
①口口① |----|
口②②口 |②---|
口口口口 |----|
13
口口口口 |①---|
④①①④ |②---|
口②②口 |③---|
口③③口 |④---|
14
①口口① |①---|
口③③口 |----|
口②②口 |②---|
口口口口 |③---|
15
①口口① |①---|
口口口口 |----|
口②②口 |②---|
口口口口 |----|
16
口口口口 |①---|
口口口口 |----|
①口口① |②---|
口②②口 |----|
17
④①①④ |①---|
口口口口 |②---|
口口口口 |③---|
③②②③ |④---|
18
口②②② |①---|
口口口口 |----|
口①①口 |②---|
口口口口 |----|
19
口口口口 |①---|
口口③口 |②---|
口②口口 |③---|
口口①口 |----|
20
②②②口 |①---|
口口口口 |----|
口①①口 |②---|
口口口口 |----|
21
口④④口 |①---|
口③口口 |②---|
口口②口 |③---|
口①口口 |④---|
22
口口口口 |①---|
口口口口 |----|
口②②口 |②---|
口①①口 |----|
23
口口口口 |①---|
①②②① |----|
口口口口 |②---|
口口口口 |----|
24
②②①① |①---|
口口口口 |----|
口口口口 |②---|
口口口口 |----|
25
口口口口 |①---|
②口口② |----|
口①①口 |②---|
口口口口 |----|
26
口口口口 |①---|
口①①口 |----|
②口口② |②---|
口口口口 |----|
27
口②②口 |①---|
口口口口 |----|
口口③口 |②---|
口①①口 |③---|
28
口口口口 |①---|
口③①口 |②---|
口②口口 |③---|
口口口口 |----|
29
口②②口 |①---|
口口口口 |----|
口口口口 |②---|
口①①口 |----|
30
口口口口 |①---|
口口口口 |②---|
口④③口 |③---|
口②①口 |④---|
31
口口③口 |①---|
口②①口 |②---|
口口口口 |③---|
口口口口 |----|
32
口口口口 |①---|
口口口口 |②---|
口④③口 |③---|
口②①口 |④---|
33
口口③口 |①---|
口②①口 |②---|
口口口口 |③---|
口口口口 |----|
34
口口口口 |①---|
口口口口 |②---|
④口口③ |③---|
②口口① |④---|
35
④口口③ |①---|
②口口① |②---|
口口口口 |③---|
口口口口 |④---|
36
口①①口 |①---|
口③③② |②---|
口口口口 |③---|
口口口口 |----|
37
口④④口 |①---|
口③③口 |②---|
口②②口 |③---|
口①①口 |④---|
38
②口口② |①---|
口口口口 |----|
口①①口 |②---|
口口口口 |----|
39
口口口口 |①---|
口①①口 |②---|
口②②口 |③---|
口③③口 |----|
40
口口口口 |①---|
①口口① |----|
口②②口 |②---|
口口口口 |----|
41
口口口口 |①---|
④①①④ |②---|
口②②口 |③---|
口③③口 |④---|
42
①口口① |①---|
口③③口 |----|
口②②口 |②---|
口口口口 |③---|
43
①口口① |①---|
口口口口 |----|
口②②口 |②---|
口口口口 |----|
44
口口口口 |①---|
口口口口 |----|
①口口① |②---|
口②②口 |----|
45
④①①④ |①---|
口口口口 |②---|
口口口口 |③---|
③②②③ |④---|
46
口②②② |①---|
口③③口 |----|
口①①口 |②---|
口口口口 |③---|
47
口④④口 |①---|
口口③口 |②---|
口②口口 |③---|
口口①口 |④---|
48
②②②口 |①---|
口③③口 |----|
口①①口 |②---|
口口口口 |③---|
49
口口口口 |①---|
口口④口 |②---|
口③④口 |③---|
口②①口 |④---|


不確定度: 0

最終更新:2013年05月27日 20:16