come again
m-flo

BASIC

Level: 4
BPM: 130
Notes: 218

1
口口口口 |----|
口口口口 |----|
口口口口 |----|
口口口口 |----|
2
口口口口 |----|
口口口口 |----|
口口口口 |----|
口口口口 |----|
3
口口口口 |①---|
①②口口 |----|
口口口口 |②---|
口口口口 |----|
4
口口口口 |①---|
口口③口 |----|
口口②① |②---|
口口口口 |③---|
5
口口口口 |①---|
①②口口 |----|
口口口口 |②---|
口口口口 |----|
6
口口口④ |①---|
口口③口 |②---|
口口口② |③---|
口口①口 |④---|
7
口口口口 |①---|
口口口口 |----|
①②口口 |②---|
口口口口 |----|
8
口口③口 |①---|
口口②① |----|
口口口口 |②---|
口口口口 |③---|
9
①②口口 |①---|
口口口口 |----|
口口口口 |②---|
口口口口 |----|
10
口口口① |①---|
口口②口 |②---|
口口口③ |③---|
口口④口 |④---|
11
口口口口 |①---|
口口口口 |----|
②①①② |②---|
口口口口 |----|
12
口口③口 |①---|
②①①② |----|
口口口口 |②---|
口口口口 |③---|
13
口①口口 |①---|
口口口口 |----|
②口口② |②---|
口口口口 |----|
14
口口口口 |①---|
④口口④ |②---|
③②①③ |③---|
口口口口 |④---|
15
①②②① |①---|
口口口口 |----|
口口口口 |②---|
口口口口 |----|
16
口口口口 |①---|
①③②① |----|
口口口口 |②---|
口口口口 |③---|
17
口口口口 |①---|
①口口① |----|
口②②口 |②---|
口口口口 |----|
18
口口口口 |①---|
口口口口 |----|
①口口① |②---|
口③②口 |③---|
19
口口口口 |①---|
口①①口 |----|
口口口口 |----|
口口口口 |----|
20
口口口口 |①---|
口口口口 |----|
②口口① |②---|
口③口口 |③---|
21
口口口口 |①---|
口④③口 |②---|
口②①口 |③---|
口口口口 |④---|
22
口②①口 |①---|
③口口③ |②---|
口口口口 |③---|
口口口口 |----|
23
口口口口 |----|
口口口② |----|
口口口口 |①---|
口①①口 |②---|
24
口口口口 |①---|
口②口口 |②---|
口口①口 |----|
口口口口 |----|
25
口口口口 |①---|
②口口② |----|
①口口① |②---|
口口口口 |----|
26
口①①口 |①---|
口②②口 |②---|
口③③口 |③---|
口④④口 |④---|
27
口口口③ |----|
口口口② |①---|
口口口① |②---|
口口口口 |③---|
28
口口①口 |①---|
口口②口 |②---|
口口③口 |③---|
口口④口 |④---|
29
口口口口 |①---|
口口口① |②---|
口口口② |----|
③口口口 |③---|
30
④口口口 |①---|
口③口口 |②---|
②①口口 |③---|
口口口口 |④---|
31
口口口③ |----|
口口口② |①---|
口口口① |②---|
口口口口 |③---|
32
口口①口 |①---|
口口②口 |②---|
口口③口 |③---|
口口④口 |④---|
33
口口口口 |①---|
口口口① |②---|
口口口② |----|
口口口口 |----|
34
口④口口 |①---|
口②口口 |②---|
③口口口 |③---|
①口口口 |④---|
35
①口口② |①---|
③口口④ |②---|
口③④口 |③---|
口口口口 |④---|
36
口②②口 |①---|
③①①④ |②---|
口③④口 |③---|
口口口口 |④---|
37
口①①口 |①---|
口②②口 |②---|
③口口③ |③---|
口口口口 |----|
38
①③③① |①---|
口口口口 |----|
口②②口 |②---|
口口口口 |③---|
39
①口口② |①---|
③口口④ |②---|
口③④口 |③---|
口口口口 |④---|
40
口②②口 |①---|
③①①④ |②---|
口③④口 |③---|
口口口口 |④---|
41
口①①口 |①---|
口②②口 |②---|
③口口③ |③---|
口口口口 |----|
42
①口④① |①---|
②口口② |②---|
③口口③ |③---|
口口口口 |④---|
43
②口口① |①---|
④口口③ |②---|
口④③口 |③---|
口口口口 |④---|
44
口②②口 |①---|
④①①③ |②---|
口④③口 |③---|
口口口口 |④---|
45
口①①口 |①---|
口②②口 |②---|
③口口③ |③---|
口口口口 |----|
46
①③③① |①---|
口口口口 |----|
口②②口 |②---|
口口口口 |③---|
47
②口口① |①---|
④口口③ |②---|
口④③口 |③---|
口口口口 |④---|
48
口②②口 |①---|
④①①③ |②---|
口④③口 |③---|
口口口口 |④---|
49
口①①口 |①---|
口②②口 |②---|
③口口③ |③---|
口口口口 |----|
50
①口口① |①---|
②口口② |②---|
③口口③ |③---|
口口口口 |----|


不確定度: 0

最終更新:2013年05月27日 20:12